<?xml version="1.0" standalone="no"?>
<!DOCTYPE svg PUBLIC "-//W3C//DTD SVG 1.1//EN" "http://www.w3.org/Graphics/SVG/1.1/DTD/svg11.dtd">
<svg xmlns="http://www.w3.org/2000/svg">
<defs >
<font id="Saira" horiz-adv-x="564" ><font-face
    font-family="Saira Thin"
    units-per-em="1000"
    panose-1="0 0 0 0 0 0 0 0 0 0"
    ascent="1135"
    descent="-439"
    alphabetic="0" />
<glyph unicode=" " horiz-adv-x="235" />
<glyph unicode="!" horiz-adv-x="249" d="M96 197Q94 240 92 285T88 374T84 459T81 532T80 586V688H175V586Q175 564 174 532T172 460T168 375T163 285T159 197H96ZM80 0V98H175V0H80Z" />
<glyph unicode="&quot;" horiz-adv-x="348" d="M215 444L204 612V688H283V612L271 444H215ZM76 444L65 612V688H144V612L132 444H76Z" />
<glyph unicode="#" horiz-adv-x="792" d="M121 0L165 191H67V252H179L220 429H104V490H234L280 688H342L295 490H468L514 688H576L530 490H632V429H516L475 252H595V191H461L417 0H355L399 191H226L183 0H121ZM240 252H413L454 429H281L240 252Z" />
<glyph unicode="$" horiz-adv-x="538" d="M265 67Q235 68 203 70T140 75T86 81V149Q99 148 116 146T156 143T204 141T260 139Q316 139 343 146T378 171T387 223Q387 259 382 274T362 295T323 302L183 318Q137 325 113 341T79 388T69 463Q69 511 82 541T121 588T184
611T270 618Q304 618 333 617T388 612T439 604V536Q414 540 385 542T328 546T275 547Q245 547 222 546T183 537T159 513T150 467Q150 435 154 420T173 399T213 390L363 374Q402 370 425 357T458 313T468 225Q468 161 449 127T385 81T265 67ZM239 -8V696H303V-8H239Z"
/>
<glyph unicode="%" horiz-adv-x="826" d="M156 0L605 688H670L221 0H156ZM198 311Q148 311 119 319T77 349T60 407T56 503Q56 561 60 598T77 657T119 687T198 696Q248 696 276 688T318 658T334 599T338 503Q338 445 335 408T318 349T277 320T198 311ZM198 361Q227
361 243 364T268 379T278 421T280 503Q280 555 279 584T270 626T245 642T198 645Q169 645 152 642T127 626T117 584T114 503Q114 451 116 422T126 380T151 364T198 361ZM629 -8Q580 -8 551 0T509 30T492 88T488 184Q488 242 491 279T508 338T551 368T629 377Q680
377 708 369T749 339T766 280T770 184Q770 126 767 89T750 30T708 1T629 -8ZM629 42Q659 42 675 45T700 60T710 102T712 184Q712 236 711 265T701 307T677 323T629 326Q600 326 584 323T559 307T549 265T547 184Q547 132 549 103T559 61T583 45T629 42Z" />
<glyph unicode="&amp;" horiz-adv-x="736" d="M363 -8Q286 -8 233 1T148 26T98 66T74 120T68 184Q68 240 82 272T125 322T193 349V353Q133 367 104 403T74 515Q74 554 85 587T127 644T215 682T362 696Q394 696 433 694T510 687T578 677V611Q548 616 513 619T445
624T386 626Q310 626 264 620T195 599T165 561T157 503Q157 481 160 460T177 421T219 394T298 383H393V313H298Q248 313 219 305T174 281T155 242T151 187Q151 132 173 106T242 70T363 61Q392 61 421 62T478 66T533 73L502 31V383H698V313H582V11Q555 6 518 2T440
-5T363 -8Z" />
<glyph unicode="&apos;" horiz-adv-x="209" d="M76 444L65 612V688H144V612L132 444H76Z" />
<glyph unicode="(" horiz-adv-x="308" d="M227 -150Q194 -111 170 -79T128 -13T101 63T85 161T80 297Q80 376 85 432T100 531T128 607T169 673T227 743H288Q262 710 242 681T207 620T180 546T164 443T159 297Q159 211 164 151T180 48T206 -27T242 -88T288 -150H227Z" />
<glyph unicode=")" horiz-adv-x="308" d="M20 -150Q45 -117 65 -88T101 -27T128 48T144 151T149 297Q149 382 144 442T128 545T102 620T66 681T20 743H81Q114 705 138 673T180 607T207 531T223 433T228 297Q228 218 223 162T208 63T180 -12T139 -78T81 -150H20Z" />
<glyph unicode="*" horiz-adv-x="442" d="M193 320L201 468L75 387L48 437L180 503L48 572L75 621L201 540L193 688H249L241 540L367 621L394 572L262 503L394 437L367 387L242 468L249 320H193Z" />
<glyph unicode="+" horiz-adv-x="540" d="M236 52V220H70V286H236V452H302V286H470V220H302V52H236Z" />
<glyph unicode="," horiz-adv-x="223" d="M43 -120V-81Q67 -81 80 -76T97 -57T101 -17V0H64V98H159V16Q159 -26 155 -52T138 -93T103 -114T43 -120Z" />
<glyph unicode="-" horiz-adv-x="362" d="M59 248V322H302V248H59Z" />
<glyph unicode="." horiz-adv-x="223" d="M64 0V98H159V0H64Z" />
<glyph unicode="/" horiz-adv-x="359" d="M-4 -55L286 743H362L71 -55H-4Z" />
<glyph unicode="0" horiz-adv-x="671" d="M335 -8Q260 -8 212 0T136 31T96 92T80 193T76 344Q76 433 79 494T95 595T135 657T211 687T335 696Q410 696 458 688T534 657T575 596T591 495T594 344Q594 255 591 194T575 93T535 31T459 1T335 -8ZM335 66Q386 66 418
69T468 86T495 129T506 211T509 344Q509 425 507 477T496 559T469 602T418 618T335 622Q286 622 253 619T202 602T175 559T164 477T162 344Q162 263 164 211T174 129T201 86T252 70T335 66Z" />
<glyph unicode="1" horiz-adv-x="376" d="M180 0V590L38 521V598L205 688H266V0H180Z" />
<glyph unicode="2" horiz-adv-x="610" d="M70 0V80Q70 137 72 175T86 239T120 282T187 318L368 395Q404 411 422 425T446 459T453 512Q453 560 439 583T388 614T284 622Q260 622 226 620T154 616T84 609V679Q113 684 151 687T231 693T310 696Q358 696 399 691T472
669T521 617T539 521Q539 461 527 426T487 369T414 328L208 241Q182 230 171 216T156 180T153 122V75H539V0H70Z" />
<glyph unicode="3" horiz-adv-x="601" d="M264 -8Q233 -8 196 -6T123 1T60 9V78Q94 75 131 72T201 68T258 66Q317 66 358 73T419 106T440 187Q440 233 427 260T385 299T308 311H179V386H308Q342 386 370 395T415 429T432 503Q432 557 414 582T356 614T248 622Q221
622 188 620T123 616T64 609V679Q91 684 126 687T198 693T265 696Q338 696 387 685T465 652T506 596T519 515Q519 440 489 403T402 353V349Q440 342 468 325T511 274T527 184Q527 140 517 105T478 44T399 6T264 -8Z" />
<glyph unicode="4" horiz-adv-x="642" d="M409 0V161H46V227L315 688H410L142 235H410L428 480H495V235H597V161H495V0H409Z" />
<glyph unicode="5" horiz-adv-x="619" d="M287 -8Q256 -8 219 -6T146 0T82 9V78Q117 75 154 72T224 68T281 66Q337 66 372 72T427 94T455 136T463 203Q463 247 455 273T425 313T365 330T267 335Q247 335 218 334T155 329T90 322V688H499V613H169V399Q189 402 215
404T269 408T321 409Q395 409 440 397T508 360T541 298T550 213Q550 152 539 110T499 42T419 4T287 -8Z" />
<glyph unicode="6" horiz-adv-x="657" d="M347 -8Q278 -8 230 -2T150 26T101 93Q91 116 86 150T79 230T76 337Q76 392 78 437T86 517T101 579Q118 626 150 651T232 686T354 696Q380 696 414 694T486 687T558 678V609Q527 613 493 615T427 620T372 622Q302 622
261 612T198 575T170 497T163 361H169Q180 373 200 384T258 403T362 411Q425 411 470 404T543 377T583 319T596 218Q596 152 587 108T550 39T474 3T347 -8ZM339 66Q391 66 425 70T478 87T504 127T511 199Q511 247 504 275T479 316T427 333T339 337Q280 337 245
331T194 312T172 277T166 226Q166 171 174 139T202 91T255 71T339 66Z" />
<glyph unicode="7" horiz-adv-x="563" d="M139 0L419 613H41V688H514V621L235 0H139Z" />
<glyph unicode="8" horiz-adv-x="683" d="M341 -8Q257 -8 204 4T123 41T85 101T74 184Q74 243 88 275T131 324T199 349V353Q138 365 109 402T80 515Q80 561 92 595T133 651T213 685T341 696Q418 696 469 685T549 652T590 595T602 515Q602 440 573 403T483 353V349Q524
340 551 324T593 276T608 184Q608 137 598 102T559 42T478 5T341 -8ZM341 66Q410 66 449 74T504 109T521 187Q521 228 513 252T486 290T431 307T341 311Q286 311 251 307T197 290T170 253T162 187Q162 135 178 109T233 75T341 66ZM341 385Q412 385 449 394T500
429T515 503Q515 551 502 576T451 612T341 622Q269 622 232 612T181 577T168 503Q168 455 182 430T233 395T341 385Z" />
<glyph unicode="9" horiz-adv-x="657" d="M303 -8Q276 -8 241 -6T169 1T99 10V79Q130 76 164 73T230 68T285 66Q355 66 396 76T459 113T486 191T493 327H487Q477 315 457 304T398 285T294 277Q231 277 187 284T114 311T74 369T61 470Q61 536 70 580T106 649T182
685T310 696Q382 696 432 689T513 660T559 589Q572 551 576 493T580 351Q580 293 578 246T569 163T550 97Q533 56 502 33T422 1T303 -8ZM318 351Q377 351 412 357T463 376T485 411T490 462Q490 517 482 549T454 597T402 617T318 622Q265 622 232 618T179 601T153
561T145 489Q145 441 152 413T178 372T230 355T318 351Z" />
<glyph unicode=":" horiz-adv-x="223" d="M64 412V510H159V412H64ZM64 0V98H159V0H64Z" />
<glyph unicode=";" horiz-adv-x="223" d="M43 -120V-81Q67 -81 80 -76T97 -57T101 -17V0H64V98H159V16Q159 -26 155 -52T138 -93T103 -114T43 -120ZM64 412V510H159V412H64Z" />
<glyph unicode="&lt;" horiz-adv-x="541" d="M471 45L71 213V292L471 461V391L137 253L471 115V45Z" />
<glyph unicode="=" horiz-adv-x="540" d="M70 320V386H470V320H70ZM70 120V186H470V120H70Z" />
<glyph unicode="&gt;" horiz-adv-x="541" d="M70 45V115L404 253L70 391V461L470 292V213L70 45Z" />
<glyph unicode="?" horiz-adv-x="503" d="M154 197V277Q154 315 161 335T185 366T228 386L264 398Q300 411 317 422T340 456T346 518Q346 566 333 588T288 616T201 622Q186 622 167 621T125 619T81 615T38 610V680Q67 685 101 688T168 694T230 696Q284 696 322
687T385 658T420 604T432 521Q432 489 429 463T416 416T391 381T349 357L313 345Q284 335 267 328T243 313T233 293T230 260V197H154ZM145 0V98H240V0H145Z" />
<glyph unicode="@" horiz-adv-x="930" d="M465 -108Q353 -108 282 -100T170 -67T111 1T88 117T83 294Q83 399 87 470T110 587T169 655T281 687T465 696Q577 696 648 688T760 656T819 588T841 472T846 294Q846 214 839 169T817 104T778 80T717 75H582L578 137H573Q560
106 536 91T483 72T426 68Q375 68 343 79T296 118T280 196Q280 245 291 273T331 314T412 326Q426 326 454 326T516 324T575 322V349Q575 387 571 408T553 440T513 453T444 456Q430 456 411 455T372 453T336 451T309 447V506Q344 512 386 515T469 518Q529 518 564
510T618 481T643 429T650 350V117H729Q747 117 760 121T782 140T794 192T798 294Q798 390 795 453T779 556T737 615T656 643Q622 649 575 650T464 652Q407 652 364 651T286 645Q230 638 198 619T152 562T134 458T130 294Q130 189 134 122T156 17T213 -38T322 -60Q346
-62 382 -63T465 -64Q488 -64 516 -64T572 -63T620 -62T650 -60V-104Q634 -105 617 -105T578 -106T530 -107T465 -108ZM451 127Q499 127 526 137T564 173T575 246V275H431Q398 275 381 270T359 249T353 201Q353 171 360 155T388 133T451 127Z" />
<glyph unicode="A" horiz-adv-x="684" d="M28 0L288 688H396L655 0H566L495 188H186L115 0H28ZM212 263H469L343 600H338L212 263Z" />
<glyph unicode="B" horiz-adv-x="682" d="M100 0V688H420Q488 688 528 667T585 608T602 515Q602 471 590 438T553 383T485 353V349Q536 340 563 317T600 258T610 181Q610 145 602 112T573 54T514 15T416 0H100ZM186 74H396Q445 74 473 85T512 123T524 192Q524
235 512 261T471 299T396 311H186V74ZM186 386H392Q434 386 461 398T502 435T516 499Q516 541 506 566T468 602T392 614H186V386Z" />
<glyph unicode="C" horiz-adv-x="575" d="M353 -8Q281 -8 232 0T152 30T105 91T82 193T76 344Q76 433 82 494T104 595T152 657T232 687T353 696Q381 696 410 694T467 689T514 681V612Q491 615 467 617T418 621T375 622Q317 622 278 617T216 598T182 553T166 472T162
344Q162 267 166 217T181 136T216 91T278 71T375 66Q409 66 449 69T518 76V5Q497 1 469 -1T410 -6T353 -8Z" />
<glyph unicode="D" horiz-adv-x="689" d="M100 0V688H318Q403 688 457 680T542 651T589 591T608 492T612 344Q612 256 608 196T589 97T543 37T457 8T318 0H100ZM186 74H304Q367 74 408 77T473 92T508 133T522 213T526 344Q526 424 523 474T508 554T472 595T408
611T304 614H186V74Z" />
<glyph unicode="E" horiz-adv-x="603" d="M100 0V688H547V614H186V385H500V310H186V74H547V0H100Z" />
<glyph unicode="F" horiz-adv-x="565" d="M100 0V688H527V614H186V369H490V295H186V0H100Z" />
<glyph unicode="G" horiz-adv-x="676" d="M368 -8Q295 -8 244 0T161 31T110 92T84 193T76 344Q76 433 83 494T110 595T162 657T245 687T368 696Q402 696 441 693T517 686T585 676V606Q553 611 520 614T459 620T410 622Q348 622 305 619T233 603T190 561T169 479T162
344Q162 271 166 222T182 141T217 93T277 71T370 65Q391 65 416 66T465 69T505 73V297H349V370H588V12Q555 6 516 2T438 -5T368 -8Z" />
<glyph unicode="H" horiz-adv-x="731" d="M100 0V688H186V385H546V688H632V0H546V309H186V0H100Z" />
<glyph unicode="I" horiz-adv-x="286" d="M100 0V688H186V0H100Z" />
<glyph unicode="J" horiz-adv-x="355" d="M33 0V71Q87 72 116 77T158 98T173 151T176 253V688H262V280Q262 200 259 148T245 66T210 22T143 4T33 0Z" />
<glyph unicode="K" horiz-adv-x="670" d="M100 0V688H186V387H309L545 688H640L379 354L643 0H543L309 312H186V0H100Z" />
<glyph unicode="L" horiz-adv-x="538" d="M100 0V688H186V76H507V0H100Z" />
<glyph unicode="M" horiz-adv-x="906" d="M100 0V688H216L451 140H456L690 688H806V0H722V550H718L483 0H420L185 550H181V0H100Z" />
<glyph unicode="N" horiz-adv-x="731" d="M100 0V688H188L545 161H549V688H632V0H549L187 537H183V0H100Z" />
<glyph unicode="O" horiz-adv-x="717" d="M358 -8Q278 -8 226 0T143 31T98 92T80 193T76 344Q76 433 80 494T98 595T142 657T225 687T358 696Q438 696 490 688T573 657T618 596T636 495T640 344Q640 255 636 194T618 93T574 31T491 1T358 -8ZM358 66Q413 66 449
69T506 86T538 128T551 210T554 344Q554 426 552 478T538 559T506 602T449 618T358 622Q303 622 268 619T211 602T179 560T165 478T162 344Q162 262 165 210T178 129T210 86T267 70T358 66Z" />
<glyph unicode="P" horiz-adv-x="652" d="M100 0V688H401Q467 688 506 672T565 626T592 558T599 471Q599 426 593 387T566 317T506 270T399 253H186V0H100ZM186 328H371Q420 328 448 336T491 361T509 406T513 471Q513 509 510 536T493 580T451 605T373 614H186V328Z" />
<glyph unicode="Q" horiz-adv-x="717" d="M560 -115L320 218H413L658 -113V-115H560ZM358 -8Q278 -8 226 0T143 31T98 92T80 193T76 344Q76 433 80 494T98 595T142 657T225 687T358 696Q438 696 490 688T573 657T618 596T636 495T640 344Q640 255 636 194T618
93T574 31T491 1T358 -8ZM358 66Q413 66 449 69T506 86T538 128T551 210T554 344Q554 426 552 478T538 559T506 602T449 618T358 622Q303 622 268 619T211 602T179 560T165 478T162 344Q162 262 165 210T178 129T210 86T267 70T358 66Z" />
<glyph unicode="R" horiz-adv-x="681" d="M100 0V688H416Q481 688 519 673T576 629T601 562T607 481Q607 444 601 405T572 333T501 286L617 0H525L411 289L435 277Q428 275 418 274T391 273H186V0H100ZM186 348H379Q429 348 457 356T499 381T517 422T521 481Q521
515 518 539T502 580T462 605T386 614H186V348Z" />
<glyph unicode="S" horiz-adv-x="628" d="M329 -8Q292 -8 248 -6T163 -1T87 6V79Q123 76 162 73T239 68T303 66Q356 66 388 70T442 88Q457 97 464 112T472 147T474 190Q474 224 472 245T462 277T434 294T383 303L212 322Q164 328 135 342T92 379T72 433T67 504Q67
567 83 605T132 663T209 689T314 696Q352 696 392 694T467 689T526 680V609Q500 613 466 616T397 620T329 622Q274 622 240 617T186 599Q164 586 159 563T153 506Q153 467 158 446T182 416T238 403L405 384Q441 381 468 375T516 353T546 310Q552 296 555 279T559
242T561 196Q561 139 550 102T519 42T470 9T406 -5T329 -8Z" />
<glyph unicode="T" horiz-adv-x="581" d="M247 0V612H30V688H551V612H333V0H247Z" />
<glyph unicode="U" horiz-adv-x="708" d="M355 -8Q284 -8 237 0T160 29T116 84T96 173T91 301V688H177V267Q177 204 182 165T203 104T256 74T355 66Q418 66 453 74T505 104T526 165T530 267V688H616V301Q616 226 612 173T593 85T549 29T473 1T355 -8Z" />
<glyph unicode="V" horiz-adv-x="663" d="M277 0L29 688H119L330 100H335L546 688H633L385 0H277Z" />
<glyph unicode="W" horiz-adv-x="987" d="M223 0L36 688H124L277 112H283L451 688H541L710 112H716L865 688H951L764 0H662L496 557H492L326 0H223Z" />
<glyph unicode="X" horiz-adv-x="675" d="M29 0L285 345L33 688H135L335 418H343L544 688H642L390 348L645 0H544L340 276H332L127 0H29Z" />
<glyph unicode="Y" horiz-adv-x="609" d="M261 0V263L12 688H104L303 349H310L507 688H597L347 263V0H261Z" />
<glyph unicode="Z" horiz-adv-x="606" d="M53 0V71L441 614H64V688H550V619L161 74H556V0H53Z" />
<glyph unicode="[" horiz-adv-x="336" d="M100 -150V743H295V683L176 680V-87L295 -90V-150H100Z" />
<glyph unicode="\" horiz-adv-x="359" d="M287 -55L-4 743H72L362 -55H287Z" />
<glyph unicode="]" horiz-adv-x="336" d="M42 -150V-90L161 -87V680L42 683V743H236V-150H42Z" />
<glyph unicode="^" horiz-adv-x="456" d="M50 444L190 749H266L406 444H340L228 693L117 444H50Z" />
<glyph unicode="_" horiz-adv-x="358" d="M0 -170V-104H358V-170H0Z" />
<glyph unicode="`" horiz-adv-x="189" d="M129 595L0 730V735H88L189 600V595H129Z" />
<glyph unicode="a" horiz-adv-x="569" d="M223 -8Q167 -8 130 5T74 50T55 140Q55 198 68 231T116 279T211 293Q221 293 242 293T292 292T348 291T401 289V321Q401 366 396 391T373 429T326 445T245 449Q223 449 193 448T135 444T89 438V504Q127 511 174 514T273
518Q327 518 364 512T425 491T461 454T477 398T482 321V0H409L406 72H400Q384 37 355 20T290 -3T223 -8ZM253 59Q282 59 307 62T351 76T381 106Q392 127 396 151T401 209V235H231Q192 235 171 229T143 204T135 147Q135 110 144 91T178 66T253 59Z" />
<glyph unicode="b" horiz-adv-x="590" d="M337 -8Q302 -8 269 -3T210 20T169 73H163L160 0H86V743H168V445H173Q187 473 210 489T266 511T339 518Q394 518 430 506T487 464T516 384T525 255Q525 177 516 126T486 46T429 5T337 -8ZM305 64Q351 64 378 70T420 96T439
153T444 255Q444 319 439 356T420 413T379 439T305 445Q256 445 227 433T186 393Q174 367 171 334T168 255Q168 211 170 178T185 118Q198 90 227 77T305 64Z" />
<glyph unicode="c" horiz-adv-x="460" d="M272 -8Q214 -8 177 2T117 32T83 83T69 157T65 255Q65 312 69 355T86 429T121 480T180 508T269 518Q304 518 342 515T406 505V439Q383 443 350 446T289 449Q242 449 214 441T171 412T151 353T146 255Q146 194 151 156T171
97T215 69T291 61Q319 61 352 64T411 71V5Q386 0 347 -4T272 -8Z" />
<glyph unicode="d" horiz-adv-x="590" d="M253 -8Q198 -8 162 4T104 45T74 126T65 254Q65 332 73 383T103 464T160 505T251 518Q292 518 324 512T379 489T417 445H422V743H504V0H431L427 73H421Q407 38 381 21T321 -2T253 -8ZM285 64Q336 64 366 78T408 122Q418
150 420 183T422 261Q422 298 420 328T409 382Q396 416 366 430T283 445Q238 445 211 439T170 414T151 357T146 255Q146 191 151 153T170 96T211 71T285 64Z" />
<glyph unicode="e" horiz-adv-x="559" d="M294 -8Q232 -8 191 0T124 26T86 75T69 150T65 254Q65 325 71 375T98 457T166 503T290 518Q349 518 386 509T446 481T478 431T492 356T495 255V228H146Q146 176 151 143T171 92T220 67T312 60Q336 60 365 61T423 66T475
72V6Q454 2 424 -1T360 -6T294 -8ZM416 269V296Q416 348 410 378T390 424T350 445T288 450Q240 450 212 444T170 420T151 371T146 286H435L416 269Z" />
<glyph unicode="f" horiz-adv-x="372" d="M130 0V441H26V510H130V591Q130 634 137 661T159 705T200 730T260 740T343 742V680Q302 680 276 677T236 667T217 644T211 605V510H343V441H211V0H130Z" />
<glyph unicode="g" horiz-adv-x="590" d="M273 -206Q241 -206 208 -205T144 -201T93 -197V-131Q117 -133 146 -134T203 -136T255 -137Q313 -137 346 -129T396 -101T417 -45T422 47V68H417Q404 40 381 24T326 2T253 -5Q197 -5 161 7T103 47T74 127T65 255Q65 333
74 384T104 464T161 505T254 518Q288 518 321 513T380 489T421 437H427L431 510H504V66Q504 -8 497 -60T466 -144T397 -191T273 -206ZM285 66Q335 66 364 79T406 122Q417 146 419 179T422 256Q422 298 420 330T407 386Q394 418 364 432T285 446Q239 446 212 440T170
414T151 357T146 256Q146 193 151 155T170 98T211 73T285 66Z" />
<glyph unicode="h" horiz-adv-x="599" d="M86 0V743H168V443H173Q183 464 202 481T254 507T338 517Q394 517 428 506T481 470T506 409T512 319V0H431V291Q431 343 427 373T409 419T371 440T305 445Q256 445 228 433T187 397T171 340T168 263V0H86Z" />
<glyph unicode="i" horiz-adv-x="254" d="M84 654V743H171V654H84ZM86 0V510H168V0H86Z" />
<glyph unicode="j" horiz-adv-x="254" d="M84 654V743H171V654H84ZM-9 -200V-136Q35 -136 55 -131T81 -114T86 -81V510H168V-63Q168 -110 159 -138T129 -179T75 -196T-9 -200Z" />
<glyph unicode="k" horiz-adv-x="537" d="M86 0V743H168V293H232L412 510H504L297 263L507 0H412L232 223H168V0H86Z" />
<glyph unicode="l" horiz-adv-x="254" d="M86 0V743H168V0H86Z" />
<glyph unicode="m" horiz-adv-x="882" d="M86 0V510H160L163 437H169Q178 461 196 479T245 507T324 518Q392 518 425 499T471 437H477Q487 461 506 479T557 507T636 518Q705 518 739 497T784 432T795 319V0H714V291Q714 343 710 373T695 419T662 440T603 445Q560
445 535 434T499 399T484 342T481 263V0H400V291Q400 343 396 373T381 419T348 440T289 445Q246 445 221 433T185 397T171 340T168 263V0H86Z" />
<glyph unicode="n" horiz-adv-x="599" d="M86 0V510H160L163 437H169Q180 461 199 479T252 507T338 518Q395 518 429 506T481 470T506 409T512 319V0H431V291Q431 343 427 373T409 419T371 440T305 445Q256 445 228 433T187 397T171 340T168 263V0H86Z" />
<glyph unicode="o" horiz-adv-x="577" d="M288 -8Q225 -8 184 -1T118 24T83 71T68 146T65 255Q65 318 68 363T82 439T118 486T183 510T288 518Q352 518 393 511T458 486T494 439T509 364T512 255Q512 192 509 147T495 71T459 24T393 0T288 -8ZM288 61Q342 61 371
68T412 95T427 153T430 255Q430 318 428 356T413 415T371 442T288 449Q235 449 206 442T164 415T149 357T146 255Q146 192 149 154T164 95T205 68T288 61Z" />
<glyph unicode="p" horiz-adv-x="590" d="M86 -199V510H160L163 437H169Q184 471 210 489T269 512T337 518Q392 518 428 506T486 465T516 384T525 256Q525 178 517 127T487 46T430 5T339 -8Q298 -8 266 -2T211 21T173 65H168V-199H86ZM305 65Q351 65 378 71T420
96T439 153T444 255Q444 319 439 357T420 414T379 439T305 446Q254 446 225 432T182 386Q172 362 170 329T168 255Q168 213 170 182T180 129Q194 94 224 80T305 65Z" />
<glyph unicode="q" horiz-adv-x="591" d="M422 -199V65H417Q403 37 380 21T324 -1T251 -8Q196 -8 160 4T103 45T74 126T65 254Q65 332 74 383T104 464T161 505T253 518Q288 518 321 513T380 489T421 437H427L431 510H504V-199H422ZM285 65Q337 65 367 80T409 128Q418
151 420 182T422 255Q422 298 420 332T405 393Q393 420 364 433T285 446Q239 446 212 440T170 414T151 357T146 255Q146 191 151 154T170 97T211 71T285 65Z" />
<glyph unicode="r" horiz-adv-x="367" d="M86 0V510H159L163 412H169Q182 455 206 478T264 509T339 518V438Q270 438 233 416T182 348T168 232V0H86Z" />
<glyph unicode="s" horiz-adv-x="499" d="M256 -8Q227 -8 194 -6T129 -2T71 5V71Q95 69 117 67T162 64T206 62T251 61Q303 61 326 68T357 94T365 141Q365 174 360 189T341 208T300 216L168 231Q121 236 97 251T64 296T55 369Q55 419 69 449T109 494T172 513T255
518Q281 518 310 516T367 511T415 504V438Q389 442 363 444T309 448T253 449Q215 449 188 445T148 425T134 372Q134 343 138 329T157 309T196 300L334 285Q375 281 398 270T432 229T443 142Q443 94 432 65T396 19T337 -2T256 -8Z" />
<glyph unicode="t" horiz-adv-x="358" d="M129 0V441H26V510H129V658H210V510H332V441H210V0H129Z" />
<glyph unicode="u" horiz-adv-x="599" d="M260 -8Q204 -8 170 4T117 40T93 101T86 191V510H168V219Q168 168 172 137T189 91T228 70T293 65Q343 65 371 77T411 113T427 170T431 247V510H512V0H439L436 73H429Q419 49 400 31T346 3T260 -8Z" />
<glyph unicode="v" horiz-adv-x="530" d="M214 0L27 510H112L262 85H270L419 510H503L316 0H214Z" />
<glyph unicode="w" horiz-adv-x="817" d="M194 0L31 510H116L240 99H247L371 510H448L572 99H580L703 510H785L622 0H528L411 376H404L288 0H194Z" />
<glyph unicode="x" horiz-adv-x="546" d="M30 0L223 259L37 510H130L271 320H277L419 510H508L323 260L516 0H422L274 198H268L120 0H30Z" />
<glyph unicode="y" horiz-adv-x="599" d="M282 -206Q253 -206 222 -205T162 -202T111 -197V-132Q144 -133 171 -134T222 -136T265 -137Q323 -137 356 -128T406 -99T426 -44T431 39V69H425Q417 49 398 32T346 5T260 -5Q204 -5 170 6T117 42T93 104T86 192V510H168V221Q168
169 172 138T189 92T228 71T293 66Q343 66 371 78T411 115T427 172T431 248V510H512V63Q512 -10 505 -61T474 -144T404 -191T282 -206Z" />
<glyph unicode="z" horiz-adv-x="508" d="M52 0V63L349 441H64V510H454V447L158 69H456V0H52Z" />
<glyph unicode="{" horiz-adv-x="324" d="M241 -150Q221 -140 201 -122T164 -80T138 -28T128 33V149Q128 177 120 206T91 254T27 274V319Q69 319 90 338T120 387T128 444V560Q128 591 137 619T163 672T200 714T241 743H304Q286 730 268 711T236 669T213 620T204
568V446Q204 389 182 351T106 300V293Q160 281 182 243T204 146V25Q204 -1 212 -26T235 -75T268 -118T304 -150H241Z" />
<glyph unicode="|" horiz-adv-x="277" d="M101 -161V743H176V-161H101Z" />
<glyph unicode="}" horiz-adv-x="324" d="M19 -150Q38 -137 56 -118T88 -76T111 -27T120 25V146Q120 204 142 242T218 293V300Q165 312 143 350T120 446V568Q120 594 111 619T88 668T56 711T19 743H83Q104 733 124 715T160 672T186 620T196 560V444Q196 416 204
387T233 339T297 319V274Q255 274 234 255T204 206T196 149V33Q196 1 187 -27T161 -79T124 -121T83 -150H19Z" />
<glyph unicode="~" horiz-adv-x="497" d="M67 240Q67 279 71 304T92 341T141 354Q171 354 201 347T260 330Q284 323 307 317T350 310Q372 310 377 322T382 365H429Q429 326 425 301T404 263T355 251Q325 251 296 259T236 275Q213 282 190 288T146 294Q125 294
120 283T115 240H67Z" />
<glyph unicode="&#xa0;" horiz-adv-x="235" />
<glyph unicode="&#xa1;" horiz-adv-x="243" d="M74 -178V-76Q74 -54 75 -22T77 50T81 135T86 225T90 313H153Q155 270 157 225T161 136T165 51T168 -22T169 -76V-178H74ZM74 412V510H169V412H74Z" />
<glyph unicode="&#xa2;" horiz-adv-x="468" d="M269 67Q203 68 163 84T101 134T73 219T65 342Q65 403 71 448T91 526T129 579T187 608T270 618Q295 618 319 617T366 613T411 605V536Q388 541 355 544T292 546Q247 546 219 539T177 510T157 448T151 343Q151 277
156 237T177 176T221 147T295 139Q323 139 357 142T415 151V81Q397 76 377 73T330 69T269 67ZM247 -8V696H311V-8H247Z" />
<glyph unicode="&#xa3;" horiz-adv-x="590" d="M53 0V74H127V319H53V392H128V421Q128 501 139 554T179 639T257 683T383 696Q422 696 464 692T531 681V612Q511 615 488 617T441 620T400 622Q340 622 304 614T248 584T221 523T214 421V392H456V319H214V74H543V0H53Z" />
<glyph unicode="&#xa4;" horiz-adv-x="717" d="M111 -9L65 38L161 134Q144 165 139 216T134 344Q134 420 138 471T160 553L65 649L112 696L211 596Q235 609 271 614T358 619Q410 619 446 614T505 596L606 696L652 650L556 554Q573 522 577 471T582 344Q582 268
578 217T556 134L653 37L606 -10L505 91Q481 79 445 74T358 69Q307 69 271 74T212 92L111 -9ZM358 138Q412 138 441 145T482 174T497 236T500 344Q500 411 498 452T483 514T441 542T358 550Q305 550 276 543T234 514T219 452T216 344Q216 277 219 236T234 174T275
146T358 138Z" />
<glyph unicode="&#xa5;" horiz-adv-x="623" d="M268 0V240H65V295H249L32 688H123L309 335H316L502 688H590L373 295H557V240H354V0H268ZM65 397V452H557V397H65Z" />
<glyph unicode="&#xa6;" horiz-adv-x="277" d="M101 390V743H176V390H101ZM101 -161V192H176V-161H101Z" />
<glyph unicode="&#xa7;" horiz-adv-x="696" d="M327 -171Q292 -171 258 -169T196 -164T150 -158V-90Q167 -91 190 -93T241 -96T293 -97Q355 -97 393 -94T447 -73T464 -19Q464 13 460 29T442 54T403 70L174 133Q146 141 124 150T88 176T67 216T59 279Q59 308 62
336T77 389T109 429T164 448Q152 468 150 492T148 544Q148 590 163 620T207 666T276 689T369 696Q404 696 438 694T500 689T545 683V615Q518 618 478 620T402 622Q340 622 302 618T248 598T231 544Q231 512 236 495T257 469T304 452L523 390Q549 383 570 373T606
348T628 308T636 245Q636 216 633 188T619 135T587 95T531 76Q543 56 545 32T547 -19Q547 -66 532 -96T489 -142T420 -164T327 -171ZM139 296Q139 266 144 249T162 222T201 206L435 141Q454 136 469 132T495 128Q525 128 541 151T557 227Q557 258 552 275T532 302T488
320L261 381Q241 387 227 391T201 395Q171 395 155 372T139 296Z" />
<glyph unicode="&#xa8;" horiz-adv-x="283" d="M0 628V708H77V628H0ZM207 628V708H283V628H207Z" />
<glyph unicode="&#xa9;" horiz-adv-x="733" d="M366 -8Q284 -8 231 0T148 28T105 88T89 190T85 344Q85 435 88 497T105 599T148 659T231 688T366 696Q449 696 501 688T584 660T627 600T644 498T648 344Q648 253 645 191T628 89T584 29T502 0T366 -8ZM389 153Q340
153 311 161T266 189T245 247T239 343Q239 401 244 438T265 496T310 524T389 532Q414 532 439 530T477 525V479Q460 481 439 482T400 484Q363 484 342 481T311 463T297 421T294 343Q294 294 297 265T310 223T342 205T400 201Q419 201 441 202T479 206V160Q463 157
438 155T389 153ZM366 32Q436 32 481 36T551 57T588 107T602 198T605 344Q605 432 603 489T589 581T552 630T481 650T366 655Q296 655 252 651T182 631T145 581T130 490T127 344Q127 255 130 198T144 107T181 57T251 37T366 32Z" />
<glyph unicode="&#xaa;" horiz-adv-x="408" d="M162 314Q121 314 94 323T55 357T42 424Q42 465 51 489T84 523T154 534Q165 534 188 534T238 532T288 530V552Q288 594 281 612T249 635T176 641Q161 641 141 640T101 637T65 633V686Q91 690 127 693T199 696Q249
696 279 689T326 664T347 620T352 552V318H294L289 361H284Q270 340 250 330T207 317T162 314ZM185 365Q206 365 224 367T256 377T277 399Q283 413 285 430T288 469V488H170Q129 488 116 477T103 428Q103 390 118 378T185 365Z" />
<glyph unicode="&#xab;" horiz-adv-x="473" d="M178 99L46 304L178 510H236L122 304L236 99H178ZM346 99L214 304L346 510H404L290 304L404 99H346Z" />
<glyph unicode="&#xac;" horiz-adv-x="539" d="M403 53V221H70V288H469V53H403Z" />
<glyph unicode="&#xad;" horiz-adv-x="362" d="M59 248V322H302V248H59Z" />
<glyph unicode="&#xae;" horiz-adv-x="733" d="M366 -8Q284 -8 231 0T148 28T105 88T89 190T85 344Q85 435 88 497T105 599T148 659T231 688T366 696Q449 696 501 688T584 660T627 600T644 498T648 344Q648 253 645 191T628 89T584 29T502 0T366 -8ZM366 32Q436
32 481 36T551 57T588 107T602 198T605 344Q605 432 603 489T589 581T552 630T481 650T366 655Q296 655 252 651T182 631T145 581T130 490T127 344Q127 255 130 198T144 107T181 57T251 37T366 32ZM233 158V528H399Q451 528 474 513T503 472T509 416Q509 384 499
354T453 310L516 158H457L401 302H287V158H233ZM287 349H379Q415 349 430 356T450 379T454 415Q454 438 450 452T432 474T385 481H287V349Z" />
<glyph unicode="&#xaf;" horiz-adv-x="289" d="M0 628V685H289V628H0Z" />
<glyph unicode="&#xb0;" horiz-adv-x="389" d="M195 397Q148 397 121 404T82 428T66 474T63 546Q63 589 66 618T81 664T121 688T195 696Q242 696 268 689T307 664T323 618T326 546Q326 503 323 474T308 428T269 404T195 397ZM195 443Q232 443 247 450T266 480T269
546Q269 589 266 611T248 641T195 649Q158 649 142 642T123 612T120 546Q120 503 123 481T142 451T195 443Z" />
<glyph unicode="&#xb1;" horiz-adv-x="540" d="M236 184V351H70V417H236V584H302V417H470V351H302V184H236ZM70 0V66H470V0H70Z" />
<glyph unicode="&#xb2;" horiz-adv-x="356" d="M41 420V466Q41 509 44 533T60 572T104 599L209 640Q230 648 239 654T251 670T254 698Q254 722 246 734T219 749T164 752Q144 752 112 751T49 746V792Q74 797 111 799T180 802Q217 802 247 797T296 770T315 703Q315
671 308 651T284 619T241 596L125 550Q114 546 109 541T102 527T100 499V470H315V420H41Z" />
<glyph unicode="&#xb3;" horiz-adv-x="351" d="M155 416Q128 416 94 418T35 425V471Q64 469 96 467T148 465Q197 465 221 474T246 524Q246 560 230 573T175 587H101V635H176Q194 635 209 639T234 656T243 694Q243 720 233 732T201 748T142 752Q120 752 91 751T37
746V793Q61 797 95 799T155 802Q212 802 244 792T289 761T303 703Q303 662 286 642T236 614V612Q270 605 289 587T308 521Q308 487 296 464T251 428T155 416Z" />
<glyph unicode="&#xb4;" horiz-adv-x="189" d="M0 595V600L101 735H189V730L60 595H0Z" />
<glyph unicode="&#xb5;" horiz-adv-x="599" d="M86 -189V510H168V219Q168 168 172 137T189 91T228 70T293 65Q343 65 371 77T411 113T427 170T431 247V510H512V0H439L436 73H429Q419 49 400 31T346 3T260 -8Q225 -8 197 1T148 28T109 76L184 35H168V-189H86Z" />
<glyph unicode="&#xb6;" horiz-adv-x="587" d="M309 -144V222Q239 222 194 227T123 245T84 284T69 351T65 454Q65 515 68 556T84 624T122 664T194 683T309 688H371V-144H309ZM437 -144V688H498V-144H437Z" />
<glyph unicode="&#xb7;" horiz-adv-x="223" d="M64 251V348H159V251H64Z" />
<glyph unicode="&#xb8;" horiz-adv-x="123" d="M0 -190V-185L68 18H123V13L81 -190H0Z" />
<glyph unicode="&#xb9;" horiz-adv-x="225" d="M103 420V733L21 695V747L119 797H162V420H103Z" />
<glyph unicode="&#xba;" horiz-adv-x="422" d="M211 314Q153 314 120 323T71 353T52 412T47 504Q47 559 51 596T71 655T119 686T211 696Q269 696 302 687T350 655T370 596T374 504Q374 449 370 412T351 354T302 323T211 314ZM211 368Q248 368 268 373T297 392T307
433T309 504Q309 547 307 574T297 616T269 636T211 641Q174 641 154 636T125 617T114 575T112 504Q112 460 114 433T124 392T153 373T211 368Z" />
<glyph unicode="&#xbb;" horiz-adv-x="473" d="M69 99L183 304L69 510H127L259 304L127 99H69ZM237 99L350 304L237 510H295L427 304L295 99H237Z" />
<glyph unicode="&#xbc;" horiz-adv-x="669" d="M103 308V621L21 583V635L119 685H162V308H103ZM40 0L489 688H553L104 0H40ZM530 0V85H325V128L467 377H533L389 133H531L546 256H590V133H645V85H590V0H530Z" />
<glyph unicode="&#xbd;" horiz-adv-x="725" d="M103 308V621L21 583V635L119 685H162V308H103ZM40 0L489 688H553L104 0H40ZM409 0V46Q409 89 412 113T428 152T472 179L577 220Q598 228 607 234T619 250T622 278Q622 302 614 314T587 329T532 332Q512 332 480
331T417 326V372Q442 377 479 379T548 382Q585 382 615 377T664 350T683 283Q683 251 676 231T652 199T609 176L493 130Q482 126 477 121T470 107T468 79V50H683V0H409Z" />
<glyph unicode="&#xbe;" horiz-adv-x="795" d="M155 304Q128 304 94 306T35 313V359Q64 357 96 355T148 353Q197 353 221 362T246 412Q246 448 230 461T175 475H101V523H176Q194 523 209 528T234 545T243 582Q243 608 233 620T201 636T142 640Q120 640 91 639T37
634V681Q61 685 95 687T155 690Q212 690 244 680T289 649T303 591Q303 550 286 530T236 502V500Q270 493 289 475T308 409Q308 375 296 352T251 316T155 304ZM166 0L615 688H679L230 0H166ZM656 0V85H451V128L593 377H659L515 133H657L672 256H716V133H771V85H716V0H656Z"
/>
<glyph unicode="&#xbf;" horiz-adv-x="438" d="M266 -186Q211 -186 173 -177T110 -148T75 -94T63 -11Q63 21 66 47T79 94T104 129T147 154L195 170Q219 179 233 185T254 198T263 217T265 250V313H342V233Q342 196 335 176T311 144T268 124L237 113Q199 101 180
89T155 55T149 -8Q149 -55 163 -77T209 -106T294 -112Q309 -112 329 -111T370 -109T414 -105T457 -100V-170Q428 -175 394 -178T327 -184T266 -186ZM256 412V510H350V412H256Z" />
<glyph unicode="&#xc0;" horiz-adv-x="684" d="M28 0L288 688H396L655 0H566L495 188H186L115 0H28ZM212 263H469L343 600H338L212 263ZM336 773L207 908V913H295L396 778V773H336Z" />
<glyph unicode="&#xc1;" horiz-adv-x="684" d="M28 0L288 688H396L655 0H566L495 188H186L115 0H28ZM212 263H469L343 600H338L212 263ZM289 773V778L390 913H478V908L349 773H289Z" />
<glyph unicode="&#xc2;" horiz-adv-x="684" d="M28 0L288 688H396L655 0H566L495 188H186L115 0H28ZM212 263H469L343 600H338L212 263ZM197 773V779L299 914H384L486 779V773H430L341 870L253 773H197Z" />
<glyph unicode="&#xc3;" horiz-adv-x="684" d="M28 0L288 688H396L655 0H566L495 188H186L115 0H28ZM212 263H469L343 600H338L212 263ZM171 780Q171 819 175 844T196 881T245 894Q273 894 300 887T354 870Q375 863 394 857T434 851Q456 851 460 862T465 905H512Q512
866 508 841T488 804T439 791Q409 791 384 799T330 815Q309 822 289 828T250 834Q228 834 224 823T219 780H171Z" />
<glyph unicode="&#xc4;" horiz-adv-x="684" d="M28 0L288 688H396L655 0H566L495 188H186L115 0H28ZM212 263H469L343 600H338L212 263ZM200 806V886H277V806H200ZM407 806V886H483V806H407Z" />
<glyph unicode="&#xc5;" horiz-adv-x="684" d="M28 0L288 688H396L655 0H566L495 188H186L115 0H28ZM212 263H469L343 600H338L212 263ZM341 671Q296 671 271 676T234 694T219 727T215 775Q215 803 218 823T233 855T270 874T341 880Q387 880 413 874T451 856T466
823T469 775Q469 747 466 727T451 695T413 677T341 671ZM341 713Q379 713 394 718T413 737T417 775Q417 799 414 813T395 832T341 838Q305 838 290 833T271 813T267 775Q267 751 270 738T289 719T341 713Z" />
<glyph unicode="&#xc6;" horiz-adv-x="955" d="M-7 0L328 688H898V614H455L518 385H851V310H536L601 74H898V0H530L480 188H171L80 0H-7ZM205 263H462L373 600H368L205 263Z" />
<glyph unicode="&#xc7;" horiz-adv-x="575" d="M353 -8Q281 -8 232 0T152 30T105 91T82 193T76 344Q76 433 82 494T104 595T152 657T232 687T353 696Q381 696 410 694T467 689T514 681V612Q491 615 467 617T418 621T375 622Q317 622 278 617T216 598T182 553T166
472T162 344Q162 267 166 217T181 136T216 91T278 71T375 66Q409 66 449 69T518 76V5Q497 1 469 -1T410 -6T353 -8ZM242 -190V-185L310 18H365V13L323 -190H242Z" />
<glyph unicode="&#xc8;" horiz-adv-x="603" d="M100 0V688H547V614H186V385H500V310H186V74H547V0H100ZM324 773L195 908V913H283L384 778V773H324Z" />
<glyph unicode="&#xc9;" horiz-adv-x="603" d="M100 0V688H547V614H186V385H500V310H186V74H547V0H100ZM277 773V778L378 913H466V908L337 773H277Z" />
<glyph unicode="&#xca;" horiz-adv-x="603" d="M100 0V688H547V614H186V385H500V310H186V74H547V0H100ZM185 773V779L287 914H372L474 779V773H418L329 870L241 773H185Z" />
<glyph unicode="&#xcb;" horiz-adv-x="603" d="M100 0V688H547V614H186V385H500V310H186V74H547V0H100ZM188 806V886H265V806H188ZM395 806V886H471V806H395Z" />
<glyph unicode="&#xcc;" horiz-adv-x="286" d="M100 0V688H186V0H100ZM137 773L8 908V913H96L197 778V773H137Z" />
<glyph unicode="&#xcd;" horiz-adv-x="286" d="M100 0V688H186V0H100ZM90 773V778L191 913H279V908L150 773H90Z" />
<glyph unicode="&#xce;" horiz-adv-x="286" d="M100 0V688H186V0H100ZM-2 773V779L100 914H185L287 779V773H231L142 870L54 773H-2Z" />
<glyph unicode="&#xcf;" horiz-adv-x="286" d="M100 0V688H186V0H100ZM1 806V886H78V806H1ZM208 806V886H284V806H208Z" />
<glyph unicode="&#xd0;" horiz-adv-x="689" d="M100 0V314H31V383H100V688H318Q403 688 457 680T542 651T589 591T608 492T612 344Q612 256 608 196T589 97T543 37T457 8T318 0H100ZM186 74H304Q367 74 408 77T473 92T508 133T522 213T526 344Q526 424 523 474T508
554T472 595T408 611T304 614H186V383H296V314H186V74Z" />
<glyph unicode="&#xd1;" horiz-adv-x="731" d="M100 0V688H188L545 161H549V688H632V0H549L187 537H183V0H100ZM205 780Q205 819 209 844T230 881T279 894Q307 894 334 887T388 870Q409 863 428 857T468 851Q490 851 494 862T499 905H546Q546 866 542 841T522
804T473 791Q443 791 418 799T364 815Q343 822 323 828T284 834Q262 834 258 823T253 780H205Z" />
<glyph unicode="&#xd2;" horiz-adv-x="717" d="M358 -8Q278 -8 226 0T143 31T98 92T80 193T76 344Q76 433 80 494T98 595T142 657T225 687T358 696Q438 696 490 688T573 657T618 596T636 495T640 344Q640 255 636 194T618 93T574 31T491 1T358 -8ZM358 66Q413
66 449 69T506 86T538 128T551 210T554 344Q554 426 552 478T538 559T506 602T449 618T358 622Q303 622 268 619T211 602T179 560T165 478T162 344Q162 262 165 210T178 129T210 86T267 70T358 66ZM353 773L224 908V913H312L413 778V773H353Z" />
<glyph unicode="&#xd3;" horiz-adv-x="717" d="M358 -8Q278 -8 226 0T143 31T98 92T80 193T76 344Q76 433 80 494T98 595T142 657T225 687T358 696Q438 696 490 688T573 657T618 596T636 495T640 344Q640 255 636 194T618 93T574 31T491 1T358 -8ZM358 66Q413
66 449 69T506 86T538 128T551 210T554 344Q554 426 552 478T538 559T506 602T449 618T358 622Q303 622 268 619T211 602T179 560T165 478T162 344Q162 262 165 210T178 129T210 86T267 70T358 66ZM306 773V778L407 913H495V908L366 773H306Z" />
<glyph unicode="&#xd4;" horiz-adv-x="717" d="M358 -8Q278 -8 226 0T143 31T98 92T80 193T76 344Q76 433 80 494T98 595T142 657T225 687T358 696Q438 696 490 688T573 657T618 596T636 495T640 344Q640 255 636 194T618 93T574 31T491 1T358 -8ZM358 66Q413
66 449 69T506 86T538 128T551 210T554 344Q554 426 552 478T538 559T506 602T449 618T358 622Q303 622 268 619T211 602T179 560T165 478T162 344Q162 262 165 210T178 129T210 86T267 70T358 66ZM214 773V779L316 914H401L503 779V773H447L358 870L270 773H214Z"
/>
<glyph unicode="&#xd5;" horiz-adv-x="717" d="M358 -8Q278 -8 226 0T143 31T98 92T80 193T76 344Q76 433 80 494T98 595T142 657T225 687T358 696Q438 696 490 688T573 657T618 596T636 495T640 344Q640 255 636 194T618 93T574 31T491 1T358 -8ZM358 66Q413
66 449 69T506 86T538 128T551 210T554 344Q554 426 552 478T538 559T506 602T449 618T358 622Q303 622 268 619T211 602T179 560T165 478T162 344Q162 262 165 210T178 129T210 86T267 70T358 66ZM188 780Q188 819 192 844T213 881T262 894Q290 894 317 887T371
870Q392 863 411 857T451 851Q473 851 477 862T482 905H529Q529 866 525 841T505 804T456 791Q426 791 401 799T347 815Q326 822 306 828T267 834Q245 834 241 823T236 780H188Z" />
<glyph unicode="&#xd6;" horiz-adv-x="717" d="M358 -8Q278 -8 226 0T143 31T98 92T80 193T76 344Q76 433 80 494T98 595T142 657T225 687T358 696Q438 696 490 688T573 657T618 596T636 495T640 344Q640 255 636 194T618 93T574 31T491 1T358 -8ZM358 66Q413
66 449 69T506 86T538 128T551 210T554 344Q554 426 552 478T538 559T506 602T449 618T358 622Q303 622 268 619T211 602T179 560T165 478T162 344Q162 262 165 210T178 129T210 86T267 70T358 66ZM216 806V886H293V806H216ZM423 806V886H499V806H423Z" />
<glyph unicode="&#xd7;" horiz-adv-x="482" d="M115 79L69 127L194 252L68 378L115 425L241 299L367 425L414 379L288 252L414 126L367 79L241 206L115 79Z" />
<glyph unicode="&#xd8;" horiz-adv-x="717" d="M76 -55L565 743H640L151 -55H76ZM358 -8Q278 -8 226 0T143 31T98 92T80 193T76 344Q76 433 80 494T98 595T142 657T225 687T358 696Q438 696 490 688T573 657T618 596T636 495T640 344Q640 255 636 194T618 93T574
31T491 1T358 -8ZM358 66Q413 66 449 69T506 86T538 128T551 210T554 344Q554 426 552 478T538 559T506 602T449 618T358 622Q303 622 268 619T211 602T179 560T165 478T162 344Q162 262 165 210T178 129T210 86T267 70T358 66Z" />
<glyph unicode="&#xd9;" horiz-adv-x="708" d="M355 -8Q284 -8 237 0T160 29T116 84T96 173T91 301V688H177V267Q177 204 182 165T203 104T256 74T355 66Q418 66 453 74T505 104T526 165T530 267V688H616V301Q616 226 612 173T593 85T549 29T473 1T355 -8ZM349
773L220 908V913H308L409 778V773H349Z" />
<glyph unicode="&#xda;" horiz-adv-x="708" d="M355 -8Q284 -8 237 0T160 29T116 84T96 173T91 301V688H177V267Q177 204 182 165T203 104T256 74T355 66Q418 66 453 74T505 104T526 165T530 267V688H616V301Q616 226 612 173T593 85T549 29T473 1T355 -8ZM302
773V778L403 913H491V908L362 773H302Z" />
<glyph unicode="&#xdb;" horiz-adv-x="708" d="M355 -8Q284 -8 237 0T160 29T116 84T96 173T91 301V688H177V267Q177 204 182 165T203 104T256 74T355 66Q418 66 453 74T505 104T526 165T530 267V688H616V301Q616 226 612 173T593 85T549 29T473 1T355 -8ZM210
773V779L312 914H397L499 779V773H443L354 870L266 773H210Z" />
<glyph unicode="&#xdc;" horiz-adv-x="708" d="M355 -8Q284 -8 237 0T160 29T116 84T96 173T91 301V688H177V267Q177 204 182 165T203 104T256 74T355 66Q418 66 453 74T505 104T526 165T530 267V688H616V301Q616 226 612 173T593 85T549 29T473 1T355 -8ZM212
806V886H289V806H212ZM419 806V886H495V806H419Z" />
<glyph unicode="&#xdd;" horiz-adv-x="609" d="M261 0V263L12 688H104L303 349H310L507 688H597L347 263V0H261ZM252 773V778L353 913H441V908L312 773H252Z" />
<glyph unicode="&#xde;" horiz-adv-x="652" d="M100 0V688H186V568H401Q467 568 506 552T565 506T592 437T599 351Q599 306 593 267T566 197T506 150T399 133H186V0H100ZM186 207H371Q420 207 448 215T491 241T509 285T513 351Q513 388 510 415T493 460T451 485T373
494H186V207Z" />
<glyph unicode="&#xdf;" horiz-adv-x="608" d="M86 0V540Q86 612 107 658T178 727T316 750Q381 750 423 739T490 705T523 651T533 575Q533 514 505 482T417 440V436Q479 425 510 383T542 241Q542 176 535 130T506 56T443 14T334 0H260V68H314Q363 68 392 73T436
94T456 145T461 239Q461 305 449 340T406 387T319 400H288V469H319Q369 469 398 478T439 509T452 568Q452 613 440 637T397 671T309 681Q261 681 229 671T182 628T167 529V0H86Z" />
<glyph unicode="&#xe0;" horiz-adv-x="569" d="M223 -8Q167 -8 130 5T74 50T55 140Q55 198 68 231T116 279T211 293Q221 293 242 293T292 292T348 291T401 289V321Q401 366 396 391T373 429T326 445T245 449Q223 449 193 448T135 444T89 438V504Q127 511 174 514T273
518Q327 518 364 512T425 491T461 454T477 398T482 321V0H409L406 72H400Q384 37 355 20T290 -3T223 -8ZM253 59Q282 59 307 62T351 76T381 106Q392 127 396 151T401 209V235H231Q192 235 171 229T143 204T135 147Q135 110 144 91T178 66T253 59ZM285 595L156 730V735H244L345
600V595H285Z" />
<glyph unicode="&#xe1;" horiz-adv-x="569" d="M223 -8Q167 -8 130 5T74 50T55 140Q55 198 68 231T116 279T211 293Q221 293 242 293T292 292T348 291T401 289V321Q401 366 396 391T373 429T326 445T245 449Q223 449 193 448T135 444T89 438V504Q127 511 174 514T273
518Q327 518 364 512T425 491T461 454T477 398T482 321V0H409L406 72H400Q384 37 355 20T290 -3T223 -8ZM253 59Q282 59 307 62T351 76T381 106Q392 127 396 151T401 209V235H231Q192 235 171 229T143 204T135 147Q135 110 144 91T178 66T253 59ZM210 595V600L311
735H399V730L270 595H210Z" />
<glyph unicode="&#xe2;" horiz-adv-x="569" d="M223 -8Q167 -8 130 5T74 50T55 140Q55 198 68 231T116 279T211 293Q221 293 242 293T292 292T348 291T401 289V321Q401 366 396 391T373 429T326 445T245 449Q223 449 193 448T135 444T89 438V504Q127 511 174 514T273
518Q327 518 364 512T425 491T461 454T477 398T482 321V0H409L406 72H400Q384 37 355 20T290 -3T223 -8ZM253 59Q282 59 307 62T351 76T381 106Q392 127 396 151T401 209V235H231Q192 235 171 229T143 204T135 147Q135 110 144 91T178 66T253 59ZM142 595V601L244
735H329L431 601V595H375L286 691L198 595H142Z" />
<glyph unicode="&#xe3;" horiz-adv-x="569" d="M223 -8Q167 -8 130 5T74 50T55 140Q55 198 68 231T116 279T211 293Q221 293 242 293T292 292T348 291T401 289V321Q401 366 396 391T373 429T326 445T245 449Q223 449 193 448T135 444T89 438V504Q127 511 174 514T273
518Q327 518 364 512T425 491T461 454T477 398T482 321V0H409L406 72H400Q384 37 355 20T290 -3T223 -8ZM253 59Q282 59 307 62T351 76T381 106Q392 127 396 151T401 209V235H231Q192 235 171 229T143 204T135 147Q135 110 144 91T178 66T253 59ZM115 602Q115 641
119 666T140 703T189 716Q217 716 244 709T298 692Q319 685 338 679T378 673Q400 673 404 684T409 727H456Q456 688 452 663T432 626T383 613Q353 613 328 621T274 637Q253 644 233 650T194 656Q172 656 168 645T163 602H115Z" />
<glyph unicode="&#xe4;" horiz-adv-x="569" d="M223 -8Q167 -8 130 5T74 50T55 140Q55 198 68 231T116 279T211 293Q221 293 242 293T292 292T348 291T401 289V321Q401 366 396 391T373 429T326 445T245 449Q223 449 193 448T135 444T89 438V504Q127 511 174 514T273
518Q327 518 364 512T425 491T461 454T477 398T482 321V0H409L406 72H400Q384 37 355 20T290 -3T223 -8ZM253 59Q282 59 307 62T351 76T381 106Q392 127 396 151T401 209V235H231Q192 235 171 229T143 204T135 147Q135 110 144 91T178 66T253 59ZM144 628V708H221V628H144ZM351
628V708H427V628H351Z" />
<glyph unicode="&#xe5;" horiz-adv-x="569" d="M223 -8Q167 -8 130 5T74 50T55 140Q55 198 68 231T116 279T211 293Q221 293 242 293T292 292T348 291T401 289V321Q401 366 396 391T373 429T326 445T245 449Q223 449 193 448T135 444T89 438V504Q127 511 174 514T273
518Q327 518 364 512T425 491T461 454T477 398T482 321V0H409L406 72H400Q384 37 355 20T290 -3T223 -8ZM253 59Q282 59 307 62T351 76T381 106Q392 127 396 151T401 209V235H231Q192 235 171 229T143 204T135 147Q135 110 144 91T178 66T253 59ZM285 581Q240 581
215 586T178 604T163 637T159 685Q159 713 162 733T177 765T214 784T285 790Q331 790 357 784T395 766T410 733T413 685Q413 657 410 637T395 605T357 587T285 581ZM285 623Q323 623 338 628T357 647T361 685Q361 709 358 723T339 742T285 748Q249 748 234 743T215
723T211 685Q211 661 214 648T233 629T285 623Z" />
<glyph unicode="&#xe6;" horiz-adv-x="897" d="M234 -8Q189 -8 156 -1T100 22T66 67T55 140Q55 197 68 230T116 277T211 291Q235 291 267 291T334 291T401 289V321Q401 366 396 391T373 429T326 445T245 449Q223 449 192 448T132 444T89 438V504Q121 509 168 513T273
518Q345 518 386 506T447 461Q470 492 512 505T627 518Q686 518 723 509T783 481T815 431T828 357T831 257V231H483Q483 178 488 145T508 94T557 68T649 60Q673 60 702 61T759 66T811 72V6Q791 2 761 -1T697 -6T631 -8Q573 -8 534 -1T471 24T432 71Q411 35 378
18T307 -3T234 -8ZM253 59Q283 59 309 62T354 77T384 112Q393 132 397 155T401 209V231H231Q192 231 171 226T143 202T135 147Q135 110 144 91T178 66T253 59ZM754 252Q754 317 750 356T733 415T694 443T625 450Q577 450 549 444T507 420T488 372T483 288H790L754
252Z" />
<glyph unicode="&#xe7;" horiz-adv-x="460" d="M272 -8Q214 -8 177 2T117 32T83 83T69 157T65 255Q65 312 69 355T86 429T121 480T180 508T269 518Q304 518 342 515T406 505V439Q383 443 350 446T289 449Q242 449 214 441T171 412T151 353T146 255Q146 194 151
156T171 97T215 69T291 61Q319 61 352 64T411 71V5Q386 0 347 -4T272 -8ZM183 -190V-185L251 18H306V13L264 -190H183Z" />
<glyph unicode="&#xe8;" horiz-adv-x="559" d="M294 -8Q232 -8 191 0T124 26T86 75T69 150T65 254Q65 325 71 375T98 457T166 503T290 518Q349 518 386 509T446 481T478 431T492 356T495 255V228H146Q146 176 151 143T171 92T220 67T312 60Q336 60 365 61T423
66T475 72V6Q454 2 424 -1T360 -6T294 -8ZM416 269V296Q416 348 410 378T390 424T350 445T288 450Q240 450 212 444T170 420T151 371T146 286H435L416 269ZM284 595L155 730V735H243L344 600V595H284Z" />
<glyph unicode="&#xe9;" horiz-adv-x="559" d="M294 -8Q232 -8 191 0T124 26T86 75T69 150T65 254Q65 325 71 375T98 457T166 503T290 518Q349 518 386 509T446 481T478 431T492 356T495 255V228H146Q146 176 151 143T171 92T220 67T312 60Q336 60 365 61T423
66T475 72V6Q454 2 424 -1T360 -6T294 -8ZM416 269V296Q416 348 410 378T390 424T350 445T288 450Q240 450 212 444T170 420T151 371T146 286H435L416 269ZM209 595V600L310 735H398V730L269 595H209Z" />
<glyph unicode="&#xea;" horiz-adv-x="559" d="M294 -8Q232 -8 191 0T124 26T86 75T69 150T65 254Q65 325 71 375T98 457T166 503T290 518Q349 518 386 509T446 481T478 431T492 356T495 255V228H146Q146 176 151 143T171 92T220 67T312 60Q336 60 365 61T423
66T475 72V6Q454 2 424 -1T360 -6T294 -8ZM416 269V296Q416 348 410 378T390 424T350 445T288 450Q240 450 212 444T170 420T151 371T146 286H435L416 269ZM141 595V601L243 735H328L430 601V595H374L285 691L197 595H141Z" />
<glyph unicode="&#xeb;" horiz-adv-x="559" d="M294 -8Q232 -8 191 0T124 26T86 75T69 150T65 254Q65 325 71 375T98 457T166 503T290 518Q349 518 386 509T446 481T478 431T492 356T495 255V228H146Q146 176 151 143T171 92T220 67T312 60Q336 60 365 61T423
66T475 72V6Q454 2 424 -1T360 -6T294 -8ZM416 269V296Q416 348 410 378T390 424T350 445T288 450Q240 450 212 444T170 420T151 371T146 286H435L416 269ZM143 628V708H220V628H143ZM350 628V708H426V628H350Z" />
<glyph unicode="&#xec;" horiz-adv-x="254" d="M86 0V510H168V0H86ZM382 595L253 730V735H341L442 600V595H382Z" />
<glyph unicode="&#xed;" horiz-adv-x="254" d="M86 0V510H168V0H86ZM51 595V600L152 735H240V730L111 595H51Z" />
<glyph unicode="&#xee;" horiz-adv-x="254" d="M86 0V510H168V0H86ZM239 595V601L341 735H426L528 601V595H472L383 691L295 595H239Z" />
<glyph unicode="&#xef;" horiz-adv-x="254" d="M86 0V510H168V0H86ZM241 628V708H318V628H241ZM448 628V708H524V628H448Z" />
<glyph unicode="&#xf0;" horiz-adv-x="579" d="M288 -8Q225 -8 184 -1T119 24T83 72T68 147T65 254Q65 327 70 378T95 459T156 503T270 517Q314 517 345 511T398 491L403 494Q390 531 374 562T339 620L221 600V656L303 669Q282 694 263 711T231 739V743H321Q332
734 348 719T383 682L490 700V645L419 633Q444 595 465 544T498 434Q503 407 506 380T510 325T512 272Q512 204 509 157T495 77T460 26T395 0T288 -8ZM288 60Q342 60 371 67T413 94T428 152T431 254Q431 308 429 345T413 405T371 438T288 449Q235 449 206 442T164
415T149 356T146 254Q146 191 149 153T164 94T205 67T288 60Z" />
<glyph unicode="&#xf1;" horiz-adv-x="599" d="M86 0V510H160L163 437H169Q180 461 199 479T252 507T338 518Q395 518 429 506T481 470T506 409T512 319V0H431V291Q431 343 427 373T409 419T371 440T305 445Q256 445 228 433T187 397T171 340T168 263V0H86ZM128
602Q128 641 132 666T153 703T202 716Q230 716 257 709T311 692Q332 685 351 679T391 673Q413 673 417 684T422 727H469Q469 688 465 663T445 626T396 613Q366 613 341 621T287 637Q266 644 246 650T207 656Q185 656 181 645T176 602H128Z" />
<glyph unicode="&#xf2;" horiz-adv-x="577" d="M288 -8Q225 -8 184 -1T118 24T83 71T68 146T65 255Q65 318 68 363T82 439T118 486T183 510T288 518Q352 518 393 511T458 486T494 439T509 364T512 255Q512 192 509 147T495 71T459 24T393 0T288 -8ZM288 61Q342
61 371 68T412 95T427 153T430 255Q430 318 428 356T413 415T371 442T288 449Q235 449 206 442T164 415T149 357T146 255Q146 192 149 154T164 95T205 68T288 61ZM287 595L158 730V735H246L347 600V595H287Z" />
<glyph unicode="&#xf3;" horiz-adv-x="577" d="M288 -8Q225 -8 184 -1T118 24T83 71T68 146T65 255Q65 318 68 363T82 439T118 486T183 510T288 518Q352 518 393 511T458 486T494 439T509 364T512 255Q512 192 509 147T495 71T459 24T393 0T288 -8ZM288 61Q342
61 371 68T412 95T427 153T430 255Q430 318 428 356T413 415T371 442T288 449Q235 449 206 442T164 415T149 357T146 255Q146 192 149 154T164 95T205 68T288 61ZM212 595V600L313 735H401V730L272 595H212Z" />
<glyph unicode="&#xf4;" horiz-adv-x="577" d="M288 -8Q225 -8 184 -1T118 24T83 71T68 146T65 255Q65 318 68 363T82 439T118 486T183 510T288 518Q352 518 393 511T458 486T494 439T509 364T512 255Q512 192 509 147T495 71T459 24T393 0T288 -8ZM288 61Q342
61 371 68T412 95T427 153T430 255Q430 318 428 356T413 415T371 442T288 449Q235 449 206 442T164 415T149 357T146 255Q146 192 149 154T164 95T205 68T288 61ZM144 595V601L246 735H331L433 601V595H377L288 691L200 595H144Z" />
<glyph unicode="&#xf5;" horiz-adv-x="577" d="M288 -8Q225 -8 184 -1T118 24T83 71T68 146T65 255Q65 318 68 363T82 439T118 486T183 510T288 518Q352 518 393 511T458 486T494 439T509 364T512 255Q512 192 509 147T495 71T459 24T393 0T288 -8ZM288 61Q342
61 371 68T412 95T427 153T430 255Q430 318 428 356T413 415T371 442T288 449Q235 449 206 442T164 415T149 357T146 255Q146 192 149 154T164 95T205 68T288 61ZM117 602Q117 641 121 666T142 703T191 716Q219 716 246 709T300 692Q321 685 340 679T380 673Q402
673 406 684T411 727H458Q458 688 454 663T434 626T385 613Q355 613 330 621T276 637Q255 644 235 650T196 656Q174 656 170 645T165 602H117Z" />
<glyph unicode="&#xf6;" horiz-adv-x="577" d="M288 -8Q225 -8 184 -1T118 24T83 71T68 146T65 255Q65 318 68 363T82 439T118 486T183 510T288 518Q352 518 393 511T458 486T494 439T509 364T512 255Q512 192 509 147T495 71T459 24T393 0T288 -8ZM288 61Q342
61 371 68T412 95T427 153T430 255Q430 318 428 356T413 415T371 442T288 449Q235 449 206 442T164 415T149 357T146 255Q146 192 149 154T164 95T205 68T288 61ZM146 628V708H223V628H146ZM353 628V708H429V628H353Z" />
<glyph unicode="&#xf7;" horiz-adv-x="540" d="M70 220V286H470V220H70ZM234 26V104H306V26H234ZM234 402V479H306V402H234Z" />
<glyph unicode="&#xf8;" horiz-adv-x="577" d="M65 -55L444 565H512L131 -55H65ZM288 -8Q225 -8 184 -1T118 24T83 71T68 146T65 255Q65 318 68 363T82 439T118 486T183 510T288 518Q352 518 393 511T458 486T494 439T509 364T512 255Q512 192 509 147T495 71T459
24T393 0T288 -8ZM288 61Q342 61 371 68T412 95T427 153T430 255Q430 318 428 356T413 415T371 442T288 449Q235 449 206 442T164 415T149 357T146 255Q146 192 149 154T164 95T205 68T288 61Z" />
<glyph unicode="&#xf9;" horiz-adv-x="599" d="M260 -8Q204 -8 170 4T117 40T93 101T86 191V510H168V219Q168 168 172 137T189 91T228 70T293 65Q343 65 371 77T411 113T427 170T431 247V510H512V0H439L436 73H429Q419 49 400 31T346 3T260 -8ZM298 595L169 730V735H257L358
600V595H298Z" />
<glyph unicode="&#xfa;" horiz-adv-x="599" d="M260 -8Q204 -8 170 4T117 40T93 101T86 191V510H168V219Q168 168 172 137T189 91T228 70T293 65Q343 65 371 77T411 113T427 170T431 247V510H512V0H439L436 73H429Q419 49 400 31T346 3T260 -8ZM223 595V600L324
735H412V730L283 595H223Z" />
<glyph unicode="&#xfb;" horiz-adv-x="599" d="M260 -8Q204 -8 170 4T117 40T93 101T86 191V510H168V219Q168 168 172 137T189 91T228 70T293 65Q343 65 371 77T411 113T427 170T431 247V510H512V0H439L436 73H429Q419 49 400 31T346 3T260 -8ZM155 595V601L257
735H342L444 601V595H388L299 691L211 595H155Z" />
<glyph unicode="&#xfc;" horiz-adv-x="599" d="M260 -8Q204 -8 170 4T117 40T93 101T86 191V510H168V219Q168 168 172 137T189 91T228 70T293 65Q343 65 371 77T411 113T427 170T431 247V510H512V0H439L436 73H429Q419 49 400 31T346 3T260 -8ZM157 628V708H234V628H157ZM364
628V708H440V628H364Z" />
<glyph unicode="&#xfd;" horiz-adv-x="599" d="M282 -206Q253 -206 222 -205T162 -202T111 -197V-132Q144 -133 171 -134T222 -136T265 -137Q323 -137 356 -128T406 -99T426 -44T431 39V69H425Q417 49 398 32T346 5T260 -5Q204 -5 170 6T117 42T93 104T86 192V510H168V221Q168
169 172 138T189 92T228 71T293 66Q343 66 371 78T411 115T427 172T431 248V510H512V63Q512 -10 505 -61T474 -144T404 -191T282 -206ZM223 595V600L324 735H412V730L283 595H223Z" />
<glyph unicode="&#xfe;" horiz-adv-x="590" d="M86 -189V743H168V443H173Q187 473 210 489T266 511T337 518Q392 518 428 506T486 465T516 384T525 256Q525 178 517 127T487 46T430 5T339 -8Q278 -8 236 7T173 65H168V-189H86ZM305 65Q351 65 378 71T420 96T439
153T444 255Q444 319 439 357T420 414T379 439T305 446Q256 446 226 432T183 387Q172 363 170 331T168 255Q168 214 170 183T179 133Q193 96 223 81T305 65Z" />
<glyph unicode="&#xff;" horiz-adv-x="599" d="M282 -206Q253 -206 222 -205T162 -202T111 -197V-132Q144 -133 171 -134T222 -136T265 -137Q323 -137 356 -128T406 -99T426 -44T431 39V69H425Q417 49 398 32T346 5T260 -5Q204 -5 170 6T117 42T93 104T86 192V510H168V221Q168
169 172 138T189 92T228 71T293 66Q343 66 371 78T411 115T427 172T431 248V510H512V63Q512 -10 505 -61T474 -144T404 -191T282 -206ZM157 628V708H234V628H157ZM364 628V708H440V628H364Z" />
<glyph unicode="&#x2013;" horiz-adv-x="472" d="M57 270V337H415V270H57Z" />
<glyph unicode="&#x2014;" horiz-adv-x="873" d="M57 270V337H816V270H57Z" />
<glyph unicode="&#x2018;" horiz-adv-x="219" d="M64 477V557Q64 597 68 622T84 662T118 682T176 688V651Q153 651 140 646T123 628T118 588V571H155V477H64Z" />
<glyph unicode="&#x2019;" horiz-adv-x="219" d="M43 477V514Q68 514 80 519T97 538T101 577V594H64V688H155V608Q155 568 151 543T136 503T102 483T43 477Z" />
<glyph unicode="&#x201a;" horiz-adv-x="219" d="M43 -117V-79Q68 -79 80 -75T97 -56T101 -17V0H64V94H155V14Q155 -26 151 -51T136 -90T102 -111T43 -117Z" />
<glyph unicode="&#x201c;" horiz-adv-x="382" d="M226 477V557Q226 597 230 622T246 662T280 682T339 688V651Q315 651 302 646T285 628T280 588V571H318V477H226ZM64 477V557Q64 597 68 622T84 662T118 682T176 688V651Q153 651 140 646T123 628T118 588V571H155V477H64Z"
/>
<glyph unicode="&#x201d;" horiz-adv-x="382" d="M206 477V514Q230 514 242 519T259 538T264 577V594H226V688H318V608Q318 568 314 543T298 503T264 483T206 477ZM43 477V514Q68 514 80 519T97 538T101 577V594H64V688H155V608Q155 568 151 543T136 503T102 483T43 477Z" />
<glyph unicode="&#x201e;" horiz-adv-x="382" d="M206 -117V-79Q230 -79 242 -75T259 -56T264 -17V0H226V94H318V14Q318 -26 314 -51T298 -90T264 -111T206 -117ZM43 -117V-79Q68 -79 80 -75T97 -56T101 -17V0H64V94H155V14Q155 -26 151 -51T136 -90T102 -111T43 -117Z" />
<glyph unicode="&#x2022;" horiz-adv-x="369" d="M183 233Q144 233 122 236T90 252T78 285T75 342Q75 378 77 400T90 434T122 450T183 454Q223 454 245 450T278 434T291 400T294 342Q294 307 292 286T279 252T246 237T183 233Z" />
<glyph unicode="&#x2039;" horiz-adv-x="306" d="M178 99L46 304L178 510H236L122 304L236 99H178Z" />
<glyph unicode="&#x203a;" horiz-adv-x="306" d="M69 99L183 304L69 510H128L260 304L128 99H69Z" />
</font>
</defs>
</svg>
