<?xml version="1.0" standalone="no"?>
<!DOCTYPE svg PUBLIC "-//W3C//DTD SVG 1.1//EN" "http://www.w3.org/Graphics/SVG/1.1/DTD/svg11.dtd">
<svg xmlns="http://www.w3.org/2000/svg">
<defs >
<font id="Saira" horiz-adv-x="564" ><font-face
    font-family="Saira Thin"
    units-per-em="1000"
    panose-1="0 0 0 0 0 0 0 0 0 0"
    ascent="1135"
    descent="-439"
    alphabetic="0" />
<glyph unicode=" " horiz-adv-x="253" />
<glyph unicode="!" horiz-adv-x="330" d="M113 233Q108 283 103 335T94 437T86 527T82 599T80 644V688H265V644Q265 630 264 600T259 528T252 437T242 336T232 233H113ZM87 0V145H258V0H87Z" />
<glyph unicode="&quot;" horiz-adv-x="474" d="M282 429L265 631V688H408V631L391 429H282ZM82 429L65 631V688H208V631L191 429H82Z" />
<glyph unicode="#" horiz-adv-x="726" d="M100 0L140 175H52V275H163L194 411H89V510H217L259 688H366L324 510H451L493 688H599L557 510H646V411H535L503 275H609V175H481L440 0H334L374 175H247L207 0H100ZM270 275H397L428 411H301L270 275Z" />
<glyph unicode="$" horiz-adv-x="538" d="M262 66Q234 67 202 69T136 74T69 83V199Q78 199 95 198T135 195T182 192T231 191Q280 191 301 194T327 208T332 235Q332 252 330 259T317 270T284 275L183 289Q125 297 98 319T61 376T52 457Q52 505 66 536T108 585T178
610T275 619Q313 619 345 617T405 611T457 602V486Q430 488 402 490T349 494T306 495Q275 495 256 494T225 489T210 477T205 455Q205 439 207 431T220 420T251 414L364 400Q405 395 432 382T472 336T486 239Q486 171 466 134T397 82T262 66ZM212 -8V696H330V-8H212Z"
/>
<glyph unicode="%" horiz-adv-x="877" d="M164 0L613 688H713L264 0H164ZM200 311Q148 311 118 319T73 347T54 406T50 503Q50 563 54 600T72 659T117 688T200 696Q252 696 282 688T327 659T346 601T351 503Q351 444 346 406T327 348T283 319T200 311ZM200 385Q220
385 231 387T248 400T254 435T255 503Q255 547 254 571T248 606T232 619T200 621Q180 621 169 619T152 606T146 571T145 503Q145 460 146 436T152 401T168 388T200 385ZM677 -8Q625 -8 595 0T550 28T531 87T526 184Q526 244 530 281T549 340T594 369T677 377Q729
377 759 369T804 340T823 282T828 184Q828 125 824 87T804 29T759 0T677 -8ZM677 66Q697 66 708 68T725 81T731 116T732 184Q732 228 731 252T725 287T708 300T677 302Q657 302 646 300T630 287T624 252T622 184Q622 141 623 117T630 82T646 69T677 66Z" />
<glyph unicode="&amp;" horiz-adv-x="736" d="M361 -8Q279 -8 223 1T132 28T79 70T54 123T47 184Q47 240 61 272T104 322T172 349V353Q112 367 83 403T53 515Q53 553 66 586T112 643T206 682T360 696Q396 696 440 693T527 685T604 673V557Q572 561 534 564T458
569T389 571Q333 571 299 568T248 555T225 530T219 488Q219 467 222 452T234 427T262 413T313 408H370V286H313Q281 286 262 283T232 270T217 244T213 201Q213 164 226 146T272 122T361 116Q382 116 401 116T441 118T481 122L446 69V408H714V286H608V14Q573 8 529
3T442 -5T361 -8Z" />
<glyph unicode="&apos;" horiz-adv-x="273" d="M82 429L65 631V688H208V631L191 429H82Z" />
<glyph unicode="(" horiz-adv-x="355" d="M229 -150Q192 -110 165 -77T118 -11T87 64T70 161T64 297Q64 376 69 432T87 531T118 607T164 673T229 743H334Q310 712 291 685T258 626T233 552T218 447T213 297Q213 208 218 146T233 41T257 -33T291 -91T334 -150H229Z" />
<glyph unicode=")" horiz-adv-x="355" d="M20 -150Q45 -119 64 -92T97 -33T122 41T137 146T142 297Q142 385 137 447T122 551T98 625T64 684T20 743H126Q162 705 189 673T236 607T268 531T285 433T290 297Q290 218 285 162T268 64T237 -10T190 -77T126 -150H20Z" />
<glyph unicode="*" horiz-adv-x="450" d="M184 320L194 450L85 374L43 448L163 503L43 560L85 633L194 558L184 688H267L255 559L366 633L407 560L287 503L407 448L366 374L256 450L267 320H184Z" />
<glyph unicode="+" horiz-adv-x="540" d="M211 52V195H70V310H211V452H328V310H470V195H328V52H211Z" />
<glyph unicode="," horiz-adv-x="299" d="M56 -147V-83Q86 -83 100 -78T120 -58T126 -16V0H64V145H235V37Q235 -18 229 -54T205 -110T151 -139T56 -147Z" />
<glyph unicode="-" horiz-adv-x="373" d="M50 220V349H323V220H50Z" />
<glyph unicode="." horiz-adv-x="299" d="M64 0V145H235V0H64Z" />
<glyph unicode="/" horiz-adv-x="409" d="M-9 -55L281 743H417L126 -55H-9Z" />
<glyph unicode="0" horiz-adv-x="663" d="M331 -8Q254 -8 203 0T122 31T78 92T59 194T55 344Q55 432 59 494T77 595T122 657T203 687T331 696Q409 696 459 688T540 657T584 596T603 494T608 344Q608 256 604 194T585 93T540 31T460 1T331 -8ZM331 126Q361 126
380 128T410 141T426 174T432 239T434 344Q434 408 433 449T426 513T410 547T381 559T331 562Q302 562 283 560T253 547T237 514T231 449T229 344Q229 280 230 239T237 175T252 141T282 129T331 126Z" />
<glyph unicode="1" horiz-adv-x="395" d="M146 0V513L17 459V596L201 688H320V0H146Z" />
<glyph unicode="2" horiz-adv-x="612" d="M53 0V95Q53 152 56 193T69 263T103 312T166 350L318 411Q347 423 361 432T379 456T383 495Q383 526 373 540T337 558T264 562Q242 562 210 560T140 555T67 548V674Q100 680 142 685T228 693T311 696Q361 696 405 690T484
664T537 607T557 505Q557 441 544 402T504 340T441 302L269 235Q249 227 239 219T224 197T220 161V135H557V0H53Z" />
<glyph unicode="3" horiz-adv-x="608" d="M272 -8Q238 -8 198 -6T120 2T51 13V138Q87 135 125 132T197 128T256 126Q301 126 327 129T365 149T377 201Q377 235 369 252T341 276T285 282H170V414H285Q317 414 335 419T362 440T371 488Q371 524 361 539T324 558T246
562Q217 562 183 560T115 556T55 549V675Q84 681 122 686T200 693T273 696Q352 696 404 684T488 649T532 593T546 515Q546 440 516 403T427 353V349Q467 340 495 323T537 273T552 184Q552 141 541 106T499 45T414 6T272 -8Z" />
<glyph unicode="4" horiz-adv-x="650" d="M362 0V138H34V257L270 688H458L216 272H367L417 438H534V272H619V138H534V0H362Z" />
<glyph unicode="5" horiz-adv-x="625" d="M292 -8Q259 -8 219 -6T140 1T69 13V137Q104 134 141 132T213 128T272 126Q312 126 336 129T373 142T392 168T397 213Q397 242 392 259T372 285T333 297T269 300Q243 300 209 299T141 295T77 289V688H521V553H229V424Q246
426 268 428T314 431T356 432Q421 432 463 418T529 378T562 313T572 225Q572 164 560 120T518 48T433 6T292 -8Z" />
<glyph unicode="6" horiz-adv-x="664" d="M344 -8Q273 -8 223 -1T140 27T85 91Q75 114 68 148T58 231T55 342Q55 394 57 436T66 513T84 574Q102 621 135 647T222 684T351 696Q380 696 417 693T496 686T573 674V549Q537 553 501 556T434 560T384 562Q332 562 301
556T255 531T234 477T229 384H235Q243 393 259 404T306 423T390 432Q445 432 487 424T557 395T599 333T613 229Q613 165 602 120T562 46T480 5T344 -8ZM336 124Q370 124 391 126T425 137T442 163T447 210Q447 241 442 259T426 286T392 297T336 300Q300 300 279
296T248 283T234 259T231 223Q231 187 236 167T254 138T286 126T336 124Z" />
<glyph unicode="7" horiz-adv-x="572" d="M101 0L354 553H34V688H537V565L292 0H101Z" />
<glyph unicode="8" horiz-adv-x="681" d="M340 -8Q252 -8 196 5T109 43T66 103T54 184Q54 241 68 273T111 323T179 349V353Q119 366 90 403T60 515Q60 559 73 593T118 650T204 684T340 696Q421 696 475 685T561 650T606 593T620 515Q620 440 591 403T501 353V349Q542
340 569 323T611 274T626 184Q626 139 614 104T571 43T484 5T340 -8ZM340 122Q385 122 409 126T442 148T452 203Q452 231 448 248T431 273T396 285T340 288Q306 288 284 285T250 274T234 248T229 203Q229 166 238 149T271 127T340 122ZM340 408Q386 408 408 413T438
435T446 486Q446 522 439 538T409 560T340 566Q295 566 272 561T242 539T235 486Q235 452 242 435T272 413T340 408Z" />
<glyph unicode="9" horiz-adv-x="664" d="M313 -8Q284 -8 246 -5T167 3T91 14V139Q129 135 164 132T231 128T280 126Q333 126 363 132T409 157T430 211T436 304H430Q422 295 406 284T358 265T275 256Q219 256 178 264T108 293T66 355T51 459Q51 523 62 568T103
642T184 683T320 696Q399 696 452 688T537 655T586 580Q599 539 604 482T609 346Q609 287 606 240T594 157T572 94Q552 56 518 34T434 2T313 -8ZM328 388Q364 388 385 392T417 405T430 429T433 465Q433 501 428 521T410 550T378 562T328 564Q295 564 273 562T239
551T223 525T218 478Q218 447 222 429T239 402T272 391T328 388Z" />
<glyph unicode=":" horiz-adv-x="299" d="M64 365V510H235V365H64ZM64 0V145H235V0H64Z" />
<glyph unicode=";" horiz-adv-x="299" d="M56 -147V-83Q86 -83 100 -78T120 -58T126 -16V0H64V145H235V37Q235 -18 229 -54T205 -110T151 -139T56 -147ZM64 365V510H235V365H64Z" />
<glyph unicode="&lt;" horiz-adv-x="541" d="M471 45L71 194V311L471 461V344L207 253L471 162V45Z" />
<glyph unicode="=" horiz-adv-x="540" d="M70 298V414H470V298H70ZM70 91V207H470V91H70Z" />
<glyph unicode="&gt;" horiz-adv-x="541" d="M70 45V162L333 253L70 344V461L470 311V194L70 45Z" />
<glyph unicode="?" horiz-adv-x="516" d="M137 232V300Q137 339 145 362T168 397T207 417L240 428Q261 435 271 441T285 461T289 501Q289 531 280 544T251 559T193 562Q178 562 158 561T115 559T72 556T36 552V678Q64 683 100 687T173 694T243 696Q294 696 334
688T402 660T444 603T459 508Q459 467 452 439T432 394T401 365T362 346L329 335Q312 330 302 326T288 315T282 296T280 263V232H137ZM124 0V145H295V0H124Z" />
<glyph unicode="@" horiz-adv-x="940" d="M470 -108Q356 -108 283 -100T167 -68T104 -1T79 116T74 294Q74 400 79 472T104 588T166 656T282 687T470 696Q584 696 657 688T772 657T835 590T860 473T866 294Q866 213 859 168T835 104T793 80T730 75H539L534 128H527Q511
101 490 89T446 72T398 68Q355 68 327 81T284 124T270 200Q270 252 281 280T323 320T408 332Q421 332 442 332T488 331T532 329V346Q532 370 529 383T515 403T483 411T425 413Q415 413 401 413T370 412T334 410T295 407V504Q337 511 382 514T470 518Q541 518 581
508T642 475T667 420T673 339V136H739Q757 136 768 139T785 157T794 203T797 294Q797 383 795 443T781 540T743 597T670 625Q638 631 588 632T469 634Q407 634 361 633T283 627Q231 620 202 602T161 546T145 448T142 294Q142 190 146 125T167 25T224 -25T335 -44Q360
-45 394 -45T470 -46Q494 -46 524 -46T583 -45T637 -43T672 -42V-105Q656 -106 637 -106T595 -107T542 -107T470 -108ZM463 165Q493 165 507 171T527 194T532 238V262H452Q430 262 420 259T406 245T402 213Q402 194 405 184T422 169T463 165Z" />
<glyph unicode="A" horiz-adv-x="690" d="M8 0L226 688H463L682 0H506L465 135H220L180 0H8ZM257 266H427L345 538H338L257 266Z" />
<glyph unicode="B" horiz-adv-x="670" d="M71 0V688H418Q484 688 527 669T592 612T614 515Q614 467 601 434T562 382T494 353V349Q538 340 565 321T606 269T619 183Q619 140 609 106T575 49T513 13T418 0H71ZM244 130H357Q393 130 412 136T438 160T445 208Q445
240 438 257T412 280T357 287H244V130ZM244 408H354Q388 408 407 414T433 437T441 482Q441 513 435 529T410 551T354 557H244V408Z" />
<glyph unicode="C" horiz-adv-x="570" d="M347 -8Q269 -8 217 2T133 37T84 101T61 201T55 344Q55 427 61 487T83 587T132 651T217 685T347 696Q377 696 409 694T471 688T522 678V553Q491 556 466 558T421 561T389 562Q343 562 314 559T267 543T242 508T232 445T229
344Q229 284 231 244T242 180T267 145T313 130T389 126Q420 126 459 128T526 135V7Q504 3 473 0T410 -6T347 -8Z" />
<glyph unicode="D" horiz-adv-x="678" d="M71 0V688H312Q404 688 462 679T553 647T600 585T619 486T623 344Q623 261 619 202T601 104T553 42T462 10T312 0H71ZM245 134H308Q349 134 375 136T416 148T438 180T446 242T448 344Q448 406 447 445T438 507T416 540T375
552T308 554H245V134Z" />
<glyph unicode="E" horiz-adv-x="606" d="M71 0V688H553V554H245V413H506V281H245V134H553V0H71Z" />
<glyph unicode="F" horiz-adv-x="569" d="M71 0V688H533V554H245V391H496V257H245V0H71Z" />
<glyph unicode="G" horiz-adv-x="667" d="M362 -8Q285 -8 232 2T144 35T90 99T63 200T55 344Q55 428 62 488T90 588T145 652T233 686T362 696Q396 696 438 693T521 685T599 673V548Q565 553 532 555T470 560T424 562Q370 562 335 560T278 548T245 514T231 450T227
344Q227 287 229 248T240 184T264 146T305 127T368 122Q380 122 394 122T421 124T443 125V274H345V399H602V14Q566 7 523 3T438 -5T362 -8Z" />
<glyph unicode="H" horiz-adv-x="713" d="M71 0V688H245V418H468V688H642V0H468V273H245V0H71Z" />
<glyph unicode="I" horiz-adv-x="317" d="M71 0V688H245V0H71Z" />
<glyph unicode="J" horiz-adv-x="406" d="M24 0V126Q75 127 103 130T145 147T160 188T163 264V688H337V309Q337 220 333 162T314 71T265 23T173 4T24 0Z" />
<glyph unicode="K" horiz-adv-x="684" d="M71 0V688H245V416H296L484 688H672L437 361L675 0H480L296 284H245V0H71Z" />
<glyph unicode="L" horiz-adv-x="536" d="M71 0V688H245V140H513V0H71Z" />
<glyph unicode="M" horiz-adv-x="900" d="M71 0V688H310L447 280H454L591 688H829V0H662V447H655L506 0H389L241 447H233V0H71Z" />
<glyph unicode="N" horiz-adv-x="717" d="M71 0V688H250L474 319H479V688H646V0H483L243 403H238V0H71Z" />
<glyph unicode="O" horiz-adv-x="703" d="M351 -8Q264 -8 209 2T122 36T77 100T59 201T55 344Q55 427 58 487T76 587T122 651T208 685T351 696Q437 696 492 686T580 652T626 588T644 487T648 344Q648 261 644 201T626 101T580 37T493 3T351 -8ZM351 126Q387 126
409 128T445 141T464 175T471 239T473 344Q473 408 472 449T464 513T445 546T410 559T351 562Q316 562 293 560T257 547T238 513T231 449T229 344Q229 280 230 239T238 175T257 142T293 129T351 126Z" />
<glyph unicode="P" horiz-adv-x="643" d="M71 0V688H402Q468 688 509 673T572 628T602 555T610 456Q610 405 603 363T574 289T510 241T399 224H245V0H71ZM245 356H332Q368 356 388 360T419 374T432 404T435 456Q435 488 433 508T420 538T390 552T335 556H245V356Z" />
<glyph unicode="Q" horiz-adv-x="703" d="M497 -115L273 218H450L682 -110V-115H497ZM351 -8Q264 -8 209 2T122 36T77 100T59 201T55 344Q55 427 58 487T76 587T122 651T208 685T351 696Q437 696 492 686T580 652T626 588T644 487T648 344Q648 261 644 201T626
101T580 37T493 3T351 -8ZM351 126Q387 126 409 128T445 141T464 175T471 239T473 344Q473 408 472 449T464 513T445 546T410 559T351 562Q316 562 293 560T257 547T238 513T231 449T229 344Q229 280 230 239T238 175T257 142T293 129T351 126Z" />
<glyph unicode="R" horiz-adv-x="672" d="M71 0V688H412Q479 688 520 674T583 631T612 561T620 466Q620 427 614 388T589 316T529 266L633 0H452L355 275L399 251Q390 246 381 245T357 244H245V0H71ZM245 373H345Q379 373 399 376T430 390T443 418T446 464Q446
493 444 511T432 538T402 552T345 556H245V373Z" />
<glyph unicode="S" horiz-adv-x="616" d="M323 -8Q283 -8 237 -6T146 0T66 8V137Q103 134 140 131T212 127T269 126Q317 126 342 129T379 140Q387 147 390 155T395 174T396 199Q396 220 394 232T384 252T361 262T322 269L181 287Q140 292 114 307T73 349T52 410T46
490Q46 558 66 598T121 660T204 689T308 696Q348 696 391 694T472 687T535 676V550Q510 554 477 556T407 560T339 562Q300 562 277 560T241 550Q227 542 224 529T220 496Q220 471 224 458T242 439T285 430L422 414Q450 411 473 404T516 382T549 339Q556 326 560
308T567 265T570 211Q570 152 558 112T524 48T471 12T403 -4T323 -8Z" />
<glyph unicode="T" horiz-adv-x="587" d="M206 0V548H18V688H569V548H380V0H206Z" />
<glyph unicode="U" horiz-adv-x="690" d="M345 -8Q268 -8 217 1T136 32T91 89T72 180T67 310V688H241V273Q241 225 243 196T255 151T286 132T345 127Q382 127 403 131T433 151T445 195T448 273V688H622V310Q622 235 618 181T599 90T554 32T473 2T345 -8Z" />
<glyph unicode="V" horiz-adv-x="663" d="M216 0L10 688H188L330 184H337L478 688H652L446 0H216Z" />
<glyph unicode="W" horiz-adv-x="988" d="M168 0L15 688H188L287 197H295L407 688H587L701 197H709L800 688H973L820 0H602L497 434H490L386 0H168Z" />
<glyph unicode="X" horiz-adv-x="687" d="M13 0L235 345L17 688H215L342 479H351L480 688H670L452 349L673 0H476L345 215H335L203 0H13Z" />
<glyph unicode="Y" horiz-adv-x="637" d="M231 0V236L2 688H181L318 399H325L460 688H635L405 236V0H231Z" />
<glyph unicode="Z" horiz-adv-x="614" d="M44 0V128L354 554H55V688H570V564L255 133H571V0H44Z" />
<glyph unicode="[" horiz-adv-x="381" d="M75 -150V743H336V645L217 641V-48L336 -52V-150H75Z" />
<glyph unicode="\" horiz-adv-x="409" d="M282 -55L-9 743H127L417 -55H282Z" />
<glyph unicode="]" horiz-adv-x="381" d="M44 -150V-52L163 -48V641L44 645V743H306V-150H44Z" />
<glyph unicode="^" horiz-adv-x="435" d="M18 444L159 749H275L416 444H302L217 646L132 444H18Z" />
<glyph unicode="_" horiz-adv-x="388" d="M0 -185V-70H388V-185H0Z" />
<glyph unicode="`" horiz-adv-x="247" d="M133 576L0 716V721H156L247 581V576H133Z" />
<glyph unicode="a" horiz-adv-x="566" d="M186 -8Q138 -8 105 7T56 56T39 145Q39 203 52 237T101 287T200 302Q209 302 225 302T263 301T305 300T343 298V317Q343 346 339 362T322 385T284 394T218 396Q195 396 168 395T114 393T69 389V502Q110 509 161 513T270
518Q334 518 376 510T445 486T483 444T500 385T504 308V0H350L346 60H338Q319 30 294 15T241 -4T186 -8ZM262 106Q280 106 293 108T316 117T332 134Q337 145 340 161T343 199V218H250Q225 218 212 215T195 199T190 160Q190 138 195 126T215 110T262 106Z" />
<glyph unicode="b" horiz-adv-x="585" d="M372 -8Q344 -8 316 -3T266 17T227 61H218L214 0H62V743H222V456H230Q247 482 268 495T317 513T373 518Q418 518 449 505T501 463T530 382T540 254Q540 177 531 127T501 47T449 5T372 -8ZM300 124Q327 124 343 127T366
143T376 182T379 255Q379 301 377 327T367 365T343 382T300 386Q273 386 258 381T235 359Q227 342 225 317T222 255Q222 219 224 193T235 151Q242 136 257 130T300 124Z" />
<glyph unicode="c" horiz-adv-x="463" d="M267 -8Q203 -8 162 3T97 36T62 90T48 163T45 255Q45 304 48 345T63 418T98 473T162 506T266 518Q306 518 346 514T419 502V389Q399 392 368 394T309 396Q274 396 254 391T224 371T211 328T207 255Q207 210 210 182T224
139T255 119T310 114Q334 114 364 116T423 121V8Q390 1 348 -3T267 -8Z" />
<glyph unicode="d" horiz-adv-x="585" d="M212 -8Q168 -8 136 4T84 45T55 126T45 254Q45 330 54 381T83 462T134 505T211 518Q241 518 267 513T316 495T354 456H362V743H523V0H370L366 61H358Q343 32 320 18T269 -2T212 -8ZM284 124Q315 124 330 131T353 159Q359
177 360 200T362 255Q362 286 361 309T353 348Q347 370 331 378T284 386Q257 386 241 382T218 366T208 327T206 255Q206 209 208 183T217 144T241 128T284 124Z" />
<glyph unicode="e" horiz-adv-x="557" d="M300 -8Q228 -8 181 1T107 29T66 80T49 154T45 254Q45 323 51 373T81 455T152 502T284 518Q351 518 393 509T459 480T494 429T508 355T511 254V215H204Q204 181 207 161T223 130T263 117T338 113Q357 113 383 114T437
117T491 121V9Q469 4 438 0T370 -6T300 -8ZM360 282V298Q360 334 357 355T345 386T321 400T283 403Q257 403 242 400T218 385T207 353T204 298H377L360 282Z" />
<glyph unicode="f" horiz-adv-x="422" d="M114 0V388H20V510H114V545Q114 603 121 639T146 697T196 727T278 739T397 742V632Q356 632 332 630T295 622T280 603T276 567V510H397V388H276V0H114Z" />
<glyph unicode="g" horiz-adv-x="585" d="M266 -206Q234 -206 200 -205T135 -200T85 -193V-82Q106 -83 130 -83T178 -84T225 -84Q274 -84 301 -81T342 -66T359 -32T362 29V65H354Q339 39 318 26T270 7T214 2Q168 2 136 14T84 55T54 134T45 259Q45 335 54 385T84
464T136 505T213 518Q241 518 268 513T319 492T358 448H366L370 510H523V58Q523 -9 516 -59T485 -141T409 -190T266 -206ZM284 133Q313 133 328 139T351 163Q358 179 360 202T362 259Q362 291 361 315T351 354Q344 373 329 379T284 386Q257 386 241 383T218 367T208
329T206 259Q206 215 208 190T217 153T241 137T284 133Z" />
<glyph unicode="h" horiz-adv-x="591" d="M62 0V743H222V451H231Q246 476 267 490T316 511T375 517Q426 517 456 505T503 467T524 405T530 319V0H369V270Q369 311 367 334T358 369T337 382T298 385Q273 385 258 380T235 361T225 325T222 266V0H62Z" />
<glyph unicode="i" horiz-adv-x="286" d="M60 614V743H225V614H60ZM62 0V510H224V0H62Z" />
<glyph unicode="j" horiz-adv-x="286" d="M60 614V743H225V614H60ZM-21 -200V-88Q18 -88 35 -83T57 -66T62 -35V510H224V0Q224 -69 214 -109T178 -168T103 -194T-21 -200Z" />
<glyph unicode="k" horiz-adv-x="573" d="M62 0V743H222V315H253L386 510H557L384 266L560 0H382L253 193H222V0H62Z" />
<glyph unicode="l" horiz-adv-x="286" d="M62 0V743H224V0H62Z" />
<glyph unicode="m" horiz-adv-x="870" d="M62 0V510H214L218 448H227Q241 474 262 489T311 511T369 518Q429 518 460 502T504 448H513Q528 474 550 489T599 511T658 518Q723 518 754 495T796 428T807 319V0H647V270Q647 311 645 334T636 369T617 382T583 385Q560
385 546 380T525 361T517 325T515 266V0H354V270Q354 311 352 334T344 369T325 382T291 385Q268 385 254 380T233 361T224 325T222 266V0H62Z" />
<glyph unicode="n" horiz-adv-x="591" d="M62 0V510H214L218 448H227Q242 474 264 489T314 511T375 518Q426 518 456 505T503 467T524 405T530 319V0H369V270Q369 311 367 334T358 369T337 382T298 385Q273 385 258 380T235 361T225 325T222 266V0H62Z" />
<glyph unicode="o" horiz-adv-x="573" d="M286 -8Q218 -8 173 0T102 26T64 74T49 149T45 256Q45 318 48 362T64 437T102 485T173 510T286 518Q355 518 400 511T471 485T509 437T524 363T528 256Q528 194 525 149T509 74T471 26T400 0T286 -8ZM286 114Q316 114
333 118T357 136T365 179T367 256Q367 304 366 332T357 374T333 392T286 396Q256 396 240 392T216 374T208 332T206 256Q206 208 207 179T216 136T239 118T286 114Z" />
<glyph unicode="p" horiz-adv-x="585" d="M62 -199V510H214L218 448H227Q243 477 265 492T316 512T372 518Q417 518 448 506T500 465T530 384T540 256Q540 180 531 129T501 48T450 5T373 -8Q344 -8 317 -3T269 15T231 54H222V-199H62ZM300 124Q327 124 343 128T366
144T376 183T379 255Q379 301 377 327T367 366T343 382T300 386Q271 386 256 379T232 353Q226 337 224 313T222 255Q222 221 224 197T231 159Q239 139 255 132T300 124Z" />
<glyph unicode="q" horiz-adv-x="585" d="M362 -199V54H354Q338 29 316 16T268 -3T211 -8Q166 -8 135 4T83 47T54 127T45 255Q45 332 54 383T84 463T136 505T212 518Q242 518 269 513T320 492T358 448H366L370 510H523V-199H362ZM284 124Q314 124 330 131T353
158Q359 172 360 196T362 255Q362 292 360 317T350 359Q342 374 327 380T284 386Q257 386 241 383T218 367T208 328T206 255Q206 209 208 183T217 145T241 128T284 124Z" />
<glyph unicode="r" horiz-adv-x="410" d="M62 0V510H214L218 423H227Q241 460 262 481T315 510T387 518V371Q324 371 288 355T237 301T222 193V0H62Z" />
<glyph unicode="s" horiz-adv-x="500" d="M260 -8Q228 -8 191 -6T118 -1T54 6V119Q70 118 90 116T133 113T175 112T213 111Q260 111 280 114T306 126T312 152Q312 168 309 175T295 185T259 191L140 206Q97 212 75 231T46 284T38 363Q38 416 54 446T98 492T166
513T251 518Q283 518 317 516T382 511T433 503V391Q408 393 381 395T328 398T286 399Q246 399 225 397T196 387T188 361Q188 347 190 340T203 329T234 323L354 308Q388 304 412 292T448 249T461 156Q461 100 447 68T405 19T342 -3T260 -8Z" />
<glyph unicode="t" horiz-adv-x="407" d="M113 0V388H20V510H113V658H275V510H386V388H275V0H113Z" />
<glyph unicode="u" horiz-adv-x="591" d="M217 -8Q166 -8 135 5T88 43T67 105T62 191V510H222V240Q222 199 224 176T234 141T255 128T293 125Q319 125 334 130T357 149T366 185T369 244V510H530V0H377L373 62H364Q350 36 328 21T278 -1T217 -8Z" />
<glyph unicode="v" horiz-adv-x="550" d="M167 0L13 510H177L272 143H282L374 510H536L383 0H167Z" />
<glyph unicode="w" horiz-adv-x="843" d="M148 0L18 510H178L251 161H260L349 510H497L587 161H597L668 510H824L694 0H497L426 267H416L346 0H148Z" />
<glyph unicode="x" horiz-adv-x="568" d="M12 0L183 259L18 510H195L285 365H292L381 510H548L384 260L555 0H379L282 154H274L180 0H12Z" />
<glyph unicode="y" horiz-adv-x="591" d="M277 -206Q246 -206 213 -205T151 -200T99 -194V-83Q130 -83 154 -83T199 -84T238 -84Q285 -84 312 -80T351 -65T366 -32T369 27V68H361Q347 44 326 30T278 9T217 2Q166 2 135 14T88 52T67 114T62 200V510H222V249Q222
208 224 185T234 150T255 136T293 133Q319 133 334 138T357 157T366 194T369 253V510H530V57Q530 -10 523 -59T492 -141T417 -190T277 -206Z" />
<glyph unicode="z" horiz-adv-x="526" d="M43 0V114L278 388H55V510H481V396L247 122H483V0H43Z" />
<glyph unicode="{" horiz-adv-x="365" d="M239 -150Q215 -139 192 -120T150 -76T120 -22T109 40V152Q109 178 103 202T78 242T23 262V330Q59 333 77 349T102 390T109 441V553Q109 585 120 614T149 668T191 713T239 743H345Q328 728 312 708T282 665T260 617T252
568V446Q252 389 225 351T133 300V293Q197 281 224 243T252 147V25Q252 1 260 -24T281 -72T311 -115T345 -150H239Z" />
<glyph unicode="|" horiz-adv-x="297" d="M79 -161V743H217V-161H79Z" />
<glyph unicode="}" horiz-adv-x="365" d="M19 -150Q36 -135 52 -115T82 -72T104 -24T112 25V147Q112 204 139 242T231 293V300Q167 312 140 350T112 446V568Q112 592 104 617T83 665T53 708T19 743H125Q150 732 173 713T214 669T244 614T255 553V441Q255 415 261
391T286 350T341 330V262Q304 259 286 243T262 202T255 152V40Q255 8 244 -21T215 -76T173 -120T125 -150H19Z" />
<glyph unicode="~" horiz-adv-x="497" d="M52 227Q52 272 56 303T81 352T145 369Q175 369 205 363T263 350Q285 345 304 341T338 336Q358 336 361 345T364 380H443Q443 335 439 304T415 255T351 238Q321 238 291 244T233 257Q212 262 192 266T158 270Q139 270
136 261T133 227H52Z" />
<glyph unicode="&#xa0;" horiz-adv-x="253" />
<glyph unicode="&#xa1;" horiz-adv-x="314" d="M64 -178V-134Q64 -120 66 -90T71 -18T78 73T88 174T97 277H217Q222 227 227 175T236 73T243 -17T248 -89T250 -134V-178H64ZM72 365V510H243V365H72Z" />
<glyph unicode="&#xa2;" horiz-adv-x="468" d="M262 67Q196 67 155 83T91 134T59 219T50 342Q50 392 55 434T72 510T108 568T166 605T253 618Q282 618 307 617T360 613T418 601V483Q399 486 369 488T313 491Q280 491 261 486T231 464T218 419T214 342Q214 294
217 265T231 220T261 199T314 194Q339 194 369 196T422 202V84Q404 79 383 75T333 69T262 67ZM213 -8V696H331V-8H213Z" />
<glyph unicode="&#xa3;" horiz-adv-x="604" d="M44 0V134H118V290H44V417H119V427Q119 501 131 552T172 635T255 681T390 696Q432 696 477 691T551 679V553Q530 556 508 558T465 561T433 562Q387 562 359 557T317 538T297 497T292 427V417H476V290H292V134H563V0H44Z" />
<glyph unicode="&#xa4;" horiz-adv-x="680" d="M127 -1L46 81L119 155Q106 186 102 233T98 345Q98 409 101 455T118 534L45 607L127 690L212 605Q236 612 268 614T340 616Q381 616 412 614T469 605L554 690L636 608L562 534Q575 502 578 456T582 345Q582 280 579
234T561 155L636 81L553 -2L468 83Q443 78 412 75T340 72Q300 72 268 75T211 83L127 -1ZM340 194Q370 194 386 198T410 217T419 263T421 345Q421 397 420 427T411 471T387 490T340 495Q310 495 293 491T270 472T261 427T259 345Q259 294 261 263T269 218T293 199T340
194Z" />
<glyph unicode="&#xa5;" horiz-adv-x="630" d="M227 0V210H48V294H210L19 688H194L313 399H320L440 688H610L419 294H580V210H401V0H227ZM48 367V451H580V367H48Z" />
<glyph unicode="&#xa6;" horiz-adv-x="297" d="M79 390V743H217V390H79ZM79 -161V192H217V-161H79Z" />
<glyph unicode="&#xa7;" horiz-adv-x="691" d="M329 -171Q286 -171 247 -169T179 -163T133 -155V-34Q149 -35 174 -37T231 -40T295 -41Q339 -41 362 -39T393 -28T401 -1Q401 15 398 22T384 35T352 47L177 98Q143 109 117 120T75 148T50 196T41 273Q41 310 45 339T60
390T90 426T141 447Q134 464 133 485T131 530Q131 583 148 615T196 665T269 689T362 696Q405 696 443 694T511 688T558 680V559Q532 561 487 563T395 565Q351 565 328 563T298 552T290 526Q290 510 293 502T307 489T342 477L517 424Q550 414 574 403T615 375T640
328T649 251Q649 214 645 185T630 134T599 98T548 77Q555 60 557 39T560 -5Q560 -58 543 -91T494 -141T421 -164T329 -171ZM193 296Q193 272 197 259T211 239T243 226L427 171Q441 168 451 165T468 162Q483 162 490 177T498 228Q498 252 494 265T480 284T452 296L266
351Q251 355 241 358T223 362Q207 362 200 347T193 296Z" />
<glyph unicode="&#xa8;" horiz-adv-x="344" d="M0 595V703H131V595H0ZM213 595V703H344V595H213Z" />
<glyph unicode="&#xa9;" horiz-adv-x="747" d="M373 -8Q289 -8 234 0T147 28T101 88T82 190T78 344Q78 435 82 497T100 599T147 659T234 688T373 696Q459 696 514 688T600 660T647 600T666 498T670 344Q670 253 666 191T647 89T601 29T514 0T373 -8ZM395 154Q344
154 313 163T266 195T245 253T239 343Q239 396 244 432T265 490T312 522T395 532Q420 532 446 530T490 522V453Q472 455 451 456T418 457Q388 457 372 454T348 440T338 406T336 343Q336 303 338 280T347 246T371 232T418 228Q437 228 457 229T492 233V161Q473 158
446 156T395 154ZM373 52Q442 52 485 55T553 73T589 118T602 204T605 344Q605 429 603 483T589 569T554 614T486 631T373 635Q305 635 262 632T194 614T158 569T144 484T141 344Q141 259 143 205T157 119T193 73T261 56T373 52Z" />
<glyph unicode="&#xaa;" horiz-adv-x="418" d="M140 313Q104 313 81 324T47 361T35 425Q35 467 44 491T79 527T150 538Q161 538 178 538T216 536T254 534V549Q254 576 248 587T223 602T161 605Q150 605 135 605T100 603T56 600V683Q88 689 126 692T201 696Q260
696 294 687T345 659T367 610T372 543V317H258L254 360H248Q234 339 216 329T179 316T140 313ZM196 395Q209 395 218 396T235 402T247 414Q251 421 252 432T254 461V478H188Q161 478 154 470T146 436Q146 411 154 403T196 395Z" />
<glyph unicode="&#xab;" horiz-adv-x="503" d="M155 99L23 304L155 510H258L153 304L258 99H155ZM348 99L216 304L348 510H451L346 304L451 99H348Z" />
<glyph unicode="&#xac;" horiz-adv-x="539" d="M353 53V195H70V312H469V53H353Z" />
<glyph unicode="&#xad;" horiz-adv-x="373" d="M50 220V349H323V220H50Z" />
<glyph unicode="&#xae;" horiz-adv-x="747" d="M373 -8Q289 -8 234 0T147 28T101 88T82 190T78 344Q78 435 82 497T100 599T147 659T234 688T373 696Q459 696 514 688T600 660T647 600T666 498T670 344Q670 253 666 191T647 89T601 29T514 0T373 -8ZM373 52Q442
52 485 55T553 73T589 118T602 204T605 344Q605 429 603 483T589 569T554 614T486 631T373 635Q305 635 262 632T194 614T158 569T144 484T141 344Q141 259 143 205T157 119T193 73T261 56T373 52ZM229 158V528H406Q459 528 484 514T516 473T524 409Q524 375 516
345T475 302L531 158H433L387 289H322V158H229ZM322 360H373Q400 360 412 364T427 378T430 408Q430 427 427 437T413 451T376 455H322V360Z" />
<glyph unicode="&#xaf;" horiz-adv-x="330" d="M0 595V688H330V595H0Z" />
<glyph unicode="&#xb0;" horiz-adv-x="396" d="M198 397Q147 397 117 404T73 428T55 474T51 546Q51 589 55 617T73 663T117 688T198 696Q250 696 279 689T323 664T341 618T345 546Q345 503 341 475T323 429T280 404T198 397ZM198 466Q224 466 234 471T247 494T249
546Q249 581 247 598T235 621T198 627Q173 627 162 621T149 598T146 546Q146 512 148 495T162 472T198 466Z" />
<glyph unicode="&#xb1;" horiz-adv-x="540" d="M211 187V330H70V445H211V587H328V445H470V330H328V187H211ZM70 0V115H470V0H70Z" />
<glyph unicode="&#xb2;" horiz-adv-x="352" d="M32 420V486Q32 519 35 543T52 584T97 615L181 648Q198 655 204 659T213 671T215 692Q215 709 210 716T192 726T153 728Q135 728 104 726T40 720V792Q68 797 106 800T178 804Q216 804 248 798T299 769T318 698Q318
664 311 643T289 608T246 583L152 547Q143 544 139 540T133 531T131 517V497H318V420H32Z" />
<glyph unicode="&#xb3;" horiz-adv-x="349" d="M157 416Q129 416 94 419T31 427V498Q61 495 93 493T146 491Q183 491 197 497T212 531Q212 560 202 567T162 575H97V649H163Q179 649 189 652T204 663T209 689Q209 707 204 715T183 725T141 728Q117 728 87 726T33
721V793Q59 798 94 801T157 804Q216 804 250 793T298 761T312 704Q312 663 295 643T244 615V612Q279 605 297 587T315 521Q315 488 303 465T256 429T157 416Z" />
<glyph unicode="&#xb4;" horiz-adv-x="247" d="M0 576V581L92 721H247V716L114 576H0Z" />
<glyph unicode="&#xb5;" horiz-adv-x="591" d="M62 -189V510H222V240Q222 199 224 176T234 141T255 128T293 125Q319 125 334 130T357 149T366 185T369 244V510H530V0H377L373 62H364Q352 41 334 26T290 3T225 -5Q200 -5 176 5T130 35T90 85L239 35H222V-189H62Z" />
<glyph unicode="&#xb6;" horiz-adv-x="637" d="M292 -144V222Q222 222 177 227T106 245T67 284T52 351T48 454Q48 515 51 556T67 624T105 664T177 683T292 688H396V-144H292ZM462 -144V688H565V-144H462Z" />
<glyph unicode="&#xb7;" horiz-adv-x="299" d="M64 227V372H235V227H64Z" />
<glyph unicode="&#xb8;" horiz-adv-x="184" d="M0 -190V-185L80 18H184V13L146 -190H0Z" />
<glyph unicode="&#xb9;" horiz-adv-x="230" d="M83 420V701L11 670V748L114 799H182V420H83Z" />
<glyph unicode="&#xba;" horiz-adv-x="436" d="M218 313Q159 313 124 322T71 352T48 410T42 504Q42 560 48 597T71 656T123 687T218 696Q277 696 312 687T364 657T387 598T393 504Q393 448 388 411T365 352T312 322T218 313ZM218 403Q239 403 251 406T268 419T274
449T275 504Q275 539 274 559T268 589T251 603T218 606Q196 606 185 603T168 590T162 559T161 504Q161 469 162 449T168 419T184 406T218 403Z" />
<glyph unicode="&#xbb;" horiz-adv-x="502" d="M52 99L156 304L52 510H154L286 304L154 99H52ZM244 99L349 304L244 510H347L479 304L347 99H244Z" />
<glyph unicode="&#xbc;" horiz-adv-x="701" d="M83 308V589L11 558V636L114 687H182V308H83ZM36 0L485 688H586L137 0H36ZM537 0V75H353V142L478 379H588L458 151H541L571 240H637V151H684V75H637V0H537Z" />
<glyph unicode="&#xbd;" horiz-adv-x="744" d="M83 308V589L11 558V636L114 687H182V308H83ZM36 0L485 688H586L137 0H36ZM424 0V66Q424 99 427 123T444 164T489 195L573 228Q590 235 596 239T605 251T607 272Q607 289 602 296T584 306T545 308Q527 308 496 306T432
300V372Q460 377 498 380T570 384Q608 384 640 378T691 349T710 278Q710 244 703 223T681 188T638 163L544 127Q535 124 531 120T525 111T523 97V77H710V0H424Z" />
<glyph unicode="&#xbe;" horiz-adv-x="820" d="M157 304Q129 304 94 307T31 315V386Q61 383 93 381T146 379Q183 379 197 385T212 419Q212 448 202 455T162 463H97V537H163Q179 537 189 540T204 551T209 577Q209 595 204 603T183 613T141 616Q117 616 87 614T33
609V681Q59 686 94 689T157 692Q216 692 250 681T298 649T312 592Q312 551 295 531T244 503V500Q279 493 297 475T315 409Q315 376 303 353T256 317T157 304ZM155 0L604 688H705L256 0H155ZM656 0V75H472V142L597 379H707L577 151H660L690 240H756V151H803V75H756V0H656Z"
/>
<glyph unicode="&#xbf;" horiz-adv-x="458" d="M269 -186Q212 -186 171 -177T104 -145T66 -87T53 2Q53 37 58 63T73 108T100 139T139 160L181 174Q199 180 209 184T224 195T231 213T232 247V278H375V210Q375 171 368 148T345 114T306 93L277 83Q254 76 243 69T228
49T224 9Q224 -20 233 -33T263 -49T319 -52Q335 -52 355 -52T396 -50T438 -46T477 -42V-168Q449 -173 413 -177T339 -184T269 -186ZM218 365V510H389V365H218Z" />
<glyph unicode="&#xc0;" horiz-adv-x="690" d="M8 0L226 688H463L682 0H506L465 135H220L180 0H8ZM257 266H427L345 538H338L257 266ZM292 754L159 894V899H315L406 760V754H292Z" />
<glyph unicode="&#xc1;" horiz-adv-x="690" d="M8 0L226 688H463L682 0H506L465 135H220L180 0H8ZM257 266H427L345 538H338L257 266ZM261 754V759L353 899H508V894L375 754H261Z" />
<glyph unicode="&#xc2;" horiz-adv-x="690" d="M8 0L226 688H463L682 0H506L465 135H220L180 0H8ZM257 266H427L345 538H338L257 266ZM176 754V762L270 899H419L513 762V754H409L344 835L279 754H176Z" />
<glyph unicode="&#xc3;" horiz-adv-x="690" d="M8 0L226 688H463L682 0H506L465 135H220L180 0H8ZM257 266H427L345 538H338L257 266ZM155 750Q155 796 159 827T183 875T248 892Q277 892 306 886T360 873Q380 868 397 864T430 860Q449 860 452 869T455 903H535Q535
859 531 827T507 779T442 762Q412 762 385 768T331 780Q310 786 292 790T261 794Q242 794 239 785T235 750H155Z" />
<glyph unicode="&#xc4;" horiz-adv-x="690" d="M8 0L226 688H463L682 0H506L465 135H220L180 0H8ZM257 266H427L345 538H338L257 266ZM173 773V881H304V773H173ZM386 773V881H517V773H386Z" />
<glyph unicode="&#xc5;" horiz-adv-x="690" d="M8 0L226 688H463L682 0H506L465 135H220L180 0H8ZM257 266H427L345 538H338L257 266ZM332 620Q282 620 253 626T209 647T191 683T187 738Q187 769 191 792T209 829T252 850T333 857Q383 857 413 850T457 829T476
792T480 738Q480 706 476 684T458 647T413 627T332 620ZM332 685Q364 685 377 689T392 705T395 738Q395 759 393 770T377 787T332 792Q302 792 290 787T275 771T272 738Q272 717 274 706T289 690T332 685Z" />
<glyph unicode="&#xc6;" horiz-adv-x="969" d="M-18 0L296 688H917V554H548L575 413H870V281H597L625 134H917V0H482L457 137H211L153 0H-18ZM265 267H438L391 548H384L265 267Z" />
<glyph unicode="&#xc7;" horiz-adv-x="570" d="M347 -8Q269 -8 217 2T133 37T84 101T61 201T55 344Q55 427 61 487T83 587T132 651T217 685T347 696Q377 696 409 694T471 688T522 678V553Q491 556 466 558T421 561T389 562Q343 562 314 559T267 543T242 508T232
445T229 344Q229 284 231 244T242 180T267 145T313 130T389 126Q420 126 459 128T526 135V7Q504 3 473 0T410 -6T347 -8ZM204 -190V-185L284 18H388V13L350 -190H204Z" />
<glyph unicode="&#xc8;" horiz-adv-x="606" d="M71 0V688H553V554H245V413H506V281H245V134H553V0H71ZM266 754L133 894V899H289L380 760V754H266Z" />
<glyph unicode="&#xc9;" horiz-adv-x="606" d="M71 0V688H553V554H245V413H506V281H245V134H553V0H71ZM234 754V759L326 899H481V894L348 754H234Z" />
<glyph unicode="&#xca;" horiz-adv-x="606" d="M71 0V688H553V554H245V413H506V281H245V134H553V0H71ZM150 754V762L244 899H393L487 762V754H383L318 835L253 754H150Z" />
<glyph unicode="&#xcb;" horiz-adv-x="606" d="M71 0V688H553V554H245V413H506V281H245V134H553V0H71ZM146 773V881H277V773H146ZM359 773V881H490V773H359Z" />
<glyph unicode="&#xcc;" horiz-adv-x="317" d="M71 0V688H245V0H71ZM105 754L-28 894V899H128L219 760V754H105Z" />
<glyph unicode="&#xcd;" horiz-adv-x="317" d="M71 0V688H245V0H71ZM74 754V759L166 899H321V894L188 754H74Z" />
<glyph unicode="&#xce;" horiz-adv-x="317" d="M71 0V688H245V0H71ZM-10 754V762L84 899H233L327 762V754H223L158 835L93 754H-10Z" />
<glyph unicode="&#xcf;" horiz-adv-x="317" d="M71 0V688H245V0H71ZM-14 773V881H117V773H-14ZM199 773V881H330V773H199Z" />
<glyph unicode="&#xd0;" horiz-adv-x="678" d="M71 0V291H7V406H71V688H312Q404 688 462 679T553 647T600 585T619 486T623 344Q623 261 619 202T601 104T553 42T462 10T312 0H71ZM245 134H308Q349 134 375 136T416 148T438 180T446 242T448 344Q448 406 447 445T438
507T416 540T375 552T308 554H245V406H325V291H245V134Z" />
<glyph unicode="&#xd1;" horiz-adv-x="717" d="M71 0V688H250L474 319H479V688H646V0H483L243 403H238V0H71ZM177 750Q177 796 181 827T205 875T270 892Q299 892 328 886T382 873Q402 868 419 864T452 860Q471 860 474 869T477 903H557Q557 859 553 827T529 779T464
762Q434 762 407 768T353 780Q332 786 314 790T283 794Q264 794 261 785T257 750H177Z" />
<glyph unicode="&#xd2;" horiz-adv-x="703" d="M351 -8Q264 -8 209 2T122 36T77 100T59 201T55 344Q55 427 58 487T76 587T122 651T208 685T351 696Q437 696 492 686T580 652T626 588T644 487T648 344Q648 261 644 201T626 101T580 37T493 3T351 -8ZM351 126Q387
126 409 128T445 141T464 175T471 239T473 344Q473 408 472 449T464 513T445 546T410 559T351 562Q316 562 293 560T257 547T238 513T231 449T229 344Q229 280 230 239T238 175T257 142T293 129T351 126ZM299 754L166 894V899H322L413 760V754H299Z" />
<glyph unicode="&#xd3;" horiz-adv-x="703" d="M351 -8Q264 -8 209 2T122 36T77 100T59 201T55 344Q55 427 58 487T76 587T122 651T208 685T351 696Q437 696 492 686T580 652T626 588T644 487T648 344Q648 261 644 201T626 101T580 37T493 3T351 -8ZM351 126Q387
126 409 128T445 141T464 175T471 239T473 344Q473 408 472 449T464 513T445 546T410 559T351 562Q316 562 293 560T257 547T238 513T231 449T229 344Q229 280 230 239T238 175T257 142T293 129T351 126ZM267 754V759L359 899H514V894L381 754H267Z" />
<glyph unicode="&#xd4;" horiz-adv-x="703" d="M351 -8Q264 -8 209 2T122 36T77 100T59 201T55 344Q55 427 58 487T76 587T122 651T208 685T351 696Q437 696 492 686T580 652T626 588T644 487T648 344Q648 261 644 201T626 101T580 37T493 3T351 -8ZM351 126Q387
126 409 128T445 141T464 175T471 239T473 344Q473 408 472 449T464 513T445 546T410 559T351 562Q316 562 293 560T257 547T238 513T231 449T229 344Q229 280 230 239T238 175T257 142T293 129T351 126ZM183 754V762L277 899H426L520 762V754H416L351 835L286
754H183Z" />
<glyph unicode="&#xd5;" horiz-adv-x="703" d="M351 -8Q264 -8 209 2T122 36T77 100T59 201T55 344Q55 427 58 487T76 587T122 651T208 685T351 696Q437 696 492 686T580 652T626 588T644 487T648 344Q648 261 644 201T626 101T580 37T493 3T351 -8ZM351 126Q387
126 409 128T445 141T464 175T471 239T473 344Q473 408 472 449T464 513T445 546T410 559T351 562Q316 562 293 560T257 547T238 513T231 449T229 344Q229 280 230 239T238 175T257 142T293 129T351 126ZM162 750Q162 796 166 827T190 875T255 892Q284 892 313
886T367 873Q387 868 404 864T437 860Q456 860 459 869T462 903H542Q542 859 538 827T514 779T449 762Q419 762 392 768T338 780Q317 786 299 790T268 794Q249 794 246 785T242 750H162Z" />
<glyph unicode="&#xd6;" horiz-adv-x="703" d="M351 -8Q264 -8 209 2T122 36T77 100T59 201T55 344Q55 427 58 487T76 587T122 651T208 685T351 696Q437 696 492 686T580 652T626 588T644 487T648 344Q648 261 644 201T626 101T580 37T493 3T351 -8ZM351 126Q387
126 409 128T445 141T464 175T471 239T473 344Q473 408 472 449T464 513T445 546T410 559T351 562Q316 562 293 560T257 547T238 513T231 449T229 344Q229 280 230 239T238 175T257 142T293 129T351 126ZM180 773V881H311V773H180ZM393 773V881H524V773H393Z" />
<glyph unicode="&#xd7;" horiz-adv-x="513" d="M151 64L69 147L174 252L68 358L151 441L257 335L363 441L445 359L339 253L445 147L362 64L256 171L151 64Z" />
<glyph unicode="&#xd8;" horiz-adv-x="703" d="M55 -55L512 743H648L190 -55H55ZM351 -8Q264 -8 209 2T122 36T77 100T59 201T55 344Q55 427 58 487T76 587T122 651T208 685T351 696Q437 696 492 686T580 652T626 588T644 487T648 344Q648 261 644 201T626 101T580
37T493 3T351 -8ZM351 126Q387 126 409 128T445 141T464 175T471 239T473 344Q473 408 472 449T464 513T445 546T410 559T351 562Q316 562 293 560T257 547T238 513T231 449T229 344Q229 280 230 239T238 175T257 142T293 129T351 126Z" />
<glyph unicode="&#xd9;" horiz-adv-x="690" d="M345 -8Q268 -8 217 1T136 32T91 89T72 180T67 310V688H241V273Q241 225 243 196T255 151T286 132T345 127Q382 127 403 131T433 151T445 195T448 273V688H622V310Q622 235 618 181T599 90T554 32T473 2T345 -8ZM292
754L159 894V899H315L406 760V754H292Z" />
<glyph unicode="&#xda;" horiz-adv-x="690" d="M345 -8Q268 -8 217 1T136 32T91 89T72 180T67 310V688H241V273Q241 225 243 196T255 151T286 132T345 127Q382 127 403 131T433 151T445 195T448 273V688H622V310Q622 235 618 181T599 90T554 32T473 2T345 -8ZM261
754V759L353 899H508V894L375 754H261Z" />
<glyph unicode="&#xdb;" horiz-adv-x="690" d="M345 -8Q268 -8 217 1T136 32T91 89T72 180T67 310V688H241V273Q241 225 243 196T255 151T286 132T345 127Q382 127 403 131T433 151T445 195T448 273V688H622V310Q622 235 618 181T599 90T554 32T473 2T345 -8ZM177
754V762L271 899H420L514 762V754H410L345 835L280 754H177Z" />
<glyph unicode="&#xdc;" horiz-adv-x="690" d="M345 -8Q268 -8 217 1T136 32T91 89T72 180T67 310V688H241V273Q241 225 243 196T255 151T286 132T345 127Q382 127 403 131T433 151T445 195T448 273V688H622V310Q622 235 618 181T599 90T554 32T473 2T345 -8ZM173
773V881H304V773H173ZM386 773V881H517V773H386Z" />
<glyph unicode="&#xdd;" horiz-adv-x="637" d="M231 0V236L2 688H181L318 399H325L460 688H635L405 236V0H231ZM234 754V759L326 899H481V894L348 754H234Z" />
<glyph unicode="&#xde;" horiz-adv-x="643" d="M72 0V688H245V584H402Q468 584 509 569T572 523T602 450T610 351Q610 300 603 258T574 184T510 137T399 120H245V0H72ZM245 252H332Q368 252 388 255T419 269T432 299T435 351Q435 384 433 403T420 433T390 448T335
452H245V252Z" />
<glyph unicode="&#xdf;" horiz-adv-x="605" d="M62 0V555Q62 622 84 665T159 729T307 750Q380 750 427 739T502 705T539 649T550 575Q550 511 522 478T434 435V431Q496 419 527 378T559 239Q559 174 550 129T517 55T446 13T327 0H283V121H307Q337 121 355 124T382
138T394 174T397 246Q397 302 390 327T363 360T307 368H291V489H307Q341 489 358 494T381 513T387 554Q387 587 381 603T357 624T306 629Q276 629 258 624T231 599T222 538V0H62Z" />
<glyph unicode="&#xe0;" horiz-adv-x="566" d="M186 -8Q138 -8 105 7T56 56T39 145Q39 203 52 237T101 287T200 302Q209 302 225 302T263 301T305 300T343 298V317Q343 346 339 362T322 385T284 394T218 396Q195 396 168 395T114 393T69 389V502Q110 509 161 513T270
518Q334 518 376 510T445 486T483 444T500 385T504 308V0H350L346 60H338Q319 30 294 15T241 -4T186 -8ZM262 106Q280 106 293 108T316 117T332 134Q337 145 340 161T343 199V218H250Q225 218 212 215T195 199T190 160Q190 138 195 126T215 110T262 106ZM246 576L113
716V721H269L360 582V576H246Z" />
<glyph unicode="&#xe1;" horiz-adv-x="566" d="M186 -8Q138 -8 105 7T56 56T39 145Q39 203 52 237T101 287T200 302Q209 302 225 302T263 301T305 300T343 298V317Q343 346 339 362T322 385T284 394T218 396Q195 396 168 395T114 393T69 389V502Q110 509 161 513T270
518Q334 518 376 510T445 486T483 444T500 385T504 308V0H350L346 60H338Q319 30 294 15T241 -4T186 -8ZM262 106Q280 106 293 108T316 117T332 134Q337 145 340 161T343 199V218H250Q225 218 212 215T195 199T190 160Q190 138 195 126T215 110T262 106ZM179 576V581L271
721H426V716L293 576H179Z" />
<glyph unicode="&#xe2;" horiz-adv-x="566" d="M186 -8Q138 -8 105 7T56 56T39 145Q39 203 52 237T101 287T200 302Q209 302 225 302T263 301T305 300T343 298V317Q343 346 339 362T322 385T284 394T218 396Q195 396 168 395T114 393T69 389V502Q110 509 161 513T270
518Q334 518 376 510T445 486T483 444T500 385T504 308V0H350L346 60H338Q319 30 294 15T241 -4T186 -8ZM262 106Q280 106 293 108T316 117T332 134Q337 145 340 161T343 199V218H250Q225 218 212 215T195 199T190 160Q190 138 195 126T215 110T262 106ZM116 576V584L210
721H359L453 584V576H349L284 657L219 576H116Z" />
<glyph unicode="&#xe3;" horiz-adv-x="566" d="M186 -8Q138 -8 105 7T56 56T39 145Q39 203 52 237T101 287T200 302Q209 302 225 302T263 301T305 300T343 298V317Q343 346 339 362T322 385T284 394T218 396Q195 396 168 395T114 393T69 389V502Q110 509 161 513T270
518Q334 518 376 510T445 486T483 444T500 385T504 308V0H350L346 60H338Q319 30 294 15T241 -4T186 -8ZM262 106Q280 106 293 108T316 117T332 134Q337 145 340 161T343 199V218H250Q225 218 212 215T195 199T190 160Q190 138 195 126T215 110T262 106ZM94 572Q94
618 98 649T122 697T187 714Q216 714 245 708T299 695Q319 690 336 686T369 682Q388 682 391 691T394 725H474Q474 681 470 649T446 601T381 584Q351 584 324 590T270 602Q249 608 231 612T200 616Q181 616 178 607T174 572H94Z" />
<glyph unicode="&#xe4;" horiz-adv-x="566" d="M186 -8Q138 -8 105 7T56 56T39 145Q39 203 52 237T101 287T200 302Q209 302 225 302T263 301T305 300T343 298V317Q343 346 339 362T322 385T284 394T218 396Q195 396 168 395T114 393T69 389V502Q110 509 161 513T270
518Q334 518 376 510T445 486T483 444T500 385T504 308V0H350L346 60H338Q319 30 294 15T241 -4T186 -8ZM262 106Q280 106 293 108T316 117T332 134Q337 145 340 161T343 199V218H250Q225 218 212 215T195 199T190 160Q190 138 195 126T215 110T262 106ZM113 595V703H244V595H113ZM326
595V703H457V595H326Z" />
<glyph unicode="&#xe5;" horiz-adv-x="566" d="M186 -8Q138 -8 105 7T56 56T39 145Q39 203 52 237T101 287T200 302Q209 302 225 302T263 301T305 300T343 298V317Q343 346 339 362T322 385T284 394T218 396Q195 396 168 395T114 393T69 389V502Q110 509 161 513T270
518Q334 518 376 510T445 486T483 444T500 385T504 308V0H350L346 60H338Q319 30 294 15T241 -4T186 -8ZM262 106Q280 106 293 108T316 117T332 134Q337 145 340 161T343 199V218H250Q225 218 212 215T195 199T190 160Q190 138 195 126T215 110T262 106ZM283 562Q233
562 204 568T160 589T142 625T138 680Q138 711 142 734T160 771T203 792T284 799Q334 799 364 792T408 771T427 734T431 680Q431 648 427 626T409 589T364 569T283 562ZM283 627Q315 627 328 631T343 647T346 680Q346 701 344 712T328 729T283 734Q253 734 241
729T226 713T223 680Q223 659 225 648T240 632T283 627Z" />
<glyph unicode="&#xe6;" horiz-adv-x="860" d="M219 -8Q168 -8 134 0T79 27T48 74T39 145Q39 203 52 237T101 287T200 302Q212 302 237 302T291 300T343 298V317Q343 346 339 362T322 385T284 394T218 396Q197 396 169 395T114 393T69 389V502Q102 508 151 513T261
518Q320 518 361 508T429 476Q456 498 497 508T594 518Q658 518 698 509T762 480T796 429T809 355T812 254V216H505Q505 182 508 162T524 131T564 117T639 113Q658 113 684 114T738 117T792 121V9Q770 4 739 0T671 -6T601 -8Q549 -8 512 -3T448 14T405 43Q380 19
349 9T284 -5T219 -8ZM262 106Q283 106 297 109T321 121T336 143Q340 155 341 168T343 199V217H250Q225 217 212 214T195 198T190 160Q190 138 195 126T215 110T262 106ZM661 251Q661 303 660 333T651 379T628 398T584 403Q558 403 543 400T519 385T508 353T505
298H705L661 251Z" />
<glyph unicode="&#xe7;" horiz-adv-x="463" d="M267 -8Q203 -8 162 3T97 36T62 90T48 163T45 255Q45 304 48 345T63 418T98 473T162 506T266 518Q306 518 346 514T419 502V389Q399 392 368 394T309 396Q274 396 254 391T224 371T211 328T207 255Q207 210 210 182T224
139T255 119T310 114Q334 114 364 116T423 121V8Q390 1 348 -3T267 -8ZM147 -190V-185L227 18H331V13L293 -190H147Z" />
<glyph unicode="&#xe8;" horiz-adv-x="557" d="M300 -8Q228 -8 181 1T107 29T66 80T49 154T45 254Q45 323 51 373T81 455T152 502T284 518Q351 518 393 509T459 480T494 429T508 355T511 254V215H204Q204 181 207 161T223 130T263 117T338 113Q357 113 383 114T437
117T491 121V9Q469 4 438 0T370 -6T300 -8ZM360 282V298Q360 334 357 355T345 386T321 400T283 403Q257 403 242 400T218 385T207 353T204 298H377L360 282ZM245 576L112 716V721H268L359 582V576H245Z" />
<glyph unicode="&#xe9;" horiz-adv-x="557" d="M300 -8Q228 -8 181 1T107 29T66 80T49 154T45 254Q45 323 51 373T81 455T152 502T284 518Q351 518 393 509T459 480T494 429T508 355T511 254V215H204Q204 181 207 161T223 130T263 117T338 113Q357 113 383 114T437
117T491 121V9Q469 4 438 0T370 -6T300 -8ZM360 282V298Q360 334 357 355T345 386T321 400T283 403Q257 403 242 400T218 385T207 353T204 298H377L360 282ZM178 576V581L270 721H425V716L292 576H178Z" />
<glyph unicode="&#xea;" horiz-adv-x="557" d="M300 -8Q228 -8 181 1T107 29T66 80T49 154T45 254Q45 323 51 373T81 455T152 502T284 518Q351 518 393 509T459 480T494 429T508 355T511 254V215H204Q204 181 207 161T223 130T263 117T338 113Q357 113 383 114T437
117T491 121V9Q469 4 438 0T370 -6T300 -8ZM360 282V298Q360 334 357 355T345 386T321 400T283 403Q257 403 242 400T218 385T207 353T204 298H377L360 282ZM115 576V584L209 721H358L452 584V576H348L283 657L218 576H115Z" />
<glyph unicode="&#xeb;" horiz-adv-x="557" d="M300 -8Q228 -8 181 1T107 29T66 80T49 154T45 254Q45 323 51 373T81 455T152 502T284 518Q351 518 393 509T459 480T494 429T508 355T511 254V215H204Q204 181 207 161T223 130T263 117T338 113Q357 113 383 114T437
117T491 121V9Q469 4 438 0T370 -6T300 -8ZM360 282V298Q360 334 357 355T345 386T321 400T283 403Q257 403 242 400T218 385T207 353T204 298H377L360 282ZM112 595V703H243V595H112ZM325 595V703H456V595H325Z" />
<glyph unicode="&#xec;" horiz-adv-x="286" d="M62 0V510H224V0H62ZM359 576L226 716V721H382L473 582V576H359Z" />
<glyph unicode="&#xed;" horiz-adv-x="286" d="M62 0V510H224V0H62ZM37 576V581L129 721H284V716L151 576H37Z" />
<glyph unicode="&#xee;" horiz-adv-x="286" d="M62 0V510H224V0H62ZM230 576V584L324 721H473L567 584V576H463L398 657L333 576H230Z" />
<glyph unicode="&#xef;" horiz-adv-x="286" d="M62 0V510H224V0H62ZM226 595V703H357V595H226ZM439 595V703H570V595H439Z" />
<glyph unicode="&#xf0;" horiz-adv-x="575" d="M286 -8Q218 -8 173 0T102 26T64 75T49 150T45 254Q45 324 50 373T74 455T131 502T234 517Q265 517 288 514T331 504L335 508Q328 530 319 550T298 588L174 571V662L240 671Q222 690 204 707T169 739V743H342Q356
730 368 718T392 693L515 711V620L453 610Q473 575 488 534T513 439Q518 414 521 386T526 327T528 261Q528 198 525 153T509 76T471 27T400 0T286 -8ZM286 113Q317 113 333 117T357 135T366 177T368 254Q368 301 366 328T357 371T334 391T286 396Q256 396 240 392T216
374T208 332T206 254Q206 206 207 178T216 135T239 117T286 113Z" />
<glyph unicode="&#xf1;" horiz-adv-x="591" d="M62 0V510H214L218 448H227Q242 474 264 489T314 511T375 518Q426 518 456 505T503 467T524 405T530 319V0H369V270Q369 311 367 334T358 369T337 382T298 385Q273 385 258 380T235 361T225 325T222 266V0H62ZM105
572Q105 618 109 649T133 697T198 714Q227 714 256 708T310 695Q330 690 347 686T380 682Q399 682 402 691T405 725H485Q485 681 481 649T457 601T392 584Q362 584 335 590T281 602Q260 608 242 612T211 616Q192 616 189 607T185 572H105Z" />
<glyph unicode="&#xf2;" horiz-adv-x="573" d="M286 -8Q218 -8 173 0T102 26T64 74T49 149T45 256Q45 318 48 362T64 437T102 485T173 510T286 518Q355 518 400 511T471 485T509 437T524 363T528 256Q528 194 525 149T509 74T471 26T400 0T286 -8ZM286 114Q316
114 333 118T357 136T365 179T367 256Q367 304 366 332T357 374T333 392T286 396Q256 396 240 392T216 374T208 332T206 256Q206 208 207 179T216 136T239 118T286 114ZM247 576L114 716V721H270L361 582V576H247Z" />
<glyph unicode="&#xf3;" horiz-adv-x="573" d="M286 -8Q218 -8 173 0T102 26T64 74T49 149T45 256Q45 318 48 362T64 437T102 485T173 510T286 518Q355 518 400 511T471 485T509 437T524 363T528 256Q528 194 525 149T509 74T471 26T400 0T286 -8ZM286 114Q316
114 333 118T357 136T365 179T367 256Q367 304 366 332T357 374T333 392T286 396Q256 396 240 392T216 374T208 332T206 256Q206 208 207 179T216 136T239 118T286 114ZM180 576V581L272 721H427V716L294 576H180Z" />
<glyph unicode="&#xf4;" horiz-adv-x="573" d="M286 -8Q218 -8 173 0T102 26T64 74T49 149T45 256Q45 318 48 362T64 437T102 485T173 510T286 518Q355 518 400 511T471 485T509 437T524 363T528 256Q528 194 525 149T509 74T471 26T400 0T286 -8ZM286 114Q316
114 333 118T357 136T365 179T367 256Q367 304 366 332T357 374T333 392T286 396Q256 396 240 392T216 374T208 332T206 256Q206 208 207 179T216 136T239 118T286 114ZM118 576V584L212 721H361L455 584V576H351L286 657L221 576H118Z" />
<glyph unicode="&#xf5;" horiz-adv-x="573" d="M286 -8Q218 -8 173 0T102 26T64 74T49 149T45 256Q45 318 48 362T64 437T102 485T173 510T286 518Q355 518 400 511T471 485T509 437T524 363T528 256Q528 194 525 149T509 74T471 26T400 0T286 -8ZM286 114Q316
114 333 118T357 136T365 179T367 256Q367 304 366 332T357 374T333 392T286 396Q256 396 240 392T216 374T208 332T206 256Q206 208 207 179T216 136T239 118T286 114ZM96 572Q96 618 100 649T124 697T189 714Q218 714 247 708T301 695Q321 690 338 686T371 682Q390
682 393 691T396 725H476Q476 681 472 649T448 601T383 584Q353 584 326 590T272 602Q251 608 233 612T202 616Q183 616 180 607T176 572H96Z" />
<glyph unicode="&#xf6;" horiz-adv-x="573" d="M286 -8Q218 -8 173 0T102 26T64 74T49 149T45 256Q45 318 48 362T64 437T102 485T173 510T286 518Q355 518 400 511T471 485T509 437T524 363T528 256Q528 194 525 149T509 74T471 26T400 0T286 -8ZM286 114Q316
114 333 118T357 136T365 179T367 256Q367 304 366 332T357 374T333 392T286 396Q256 396 240 392T216 374T208 332T206 256Q206 208 207 179T216 136T239 118T286 114ZM115 595V703H246V595H115ZM328 595V703H459V595H328Z" />
<glyph unicode="&#xf7;" horiz-adv-x="540" d="M70 195V310H470V195H70ZM211 15V116H328V15H211ZM211 389V490H328V389H211Z" />
<glyph unicode="&#xf8;" horiz-adv-x="573" d="M45 -55L400 565H528L172 -55H45ZM286 -8Q218 -8 173 0T102 26T64 74T49 149T45 256Q45 318 48 362T64 437T102 485T173 510T286 518Q355 518 400 511T471 485T509 437T524 363T528 256Q528 194 525 149T509 74T471
26T400 0T286 -8ZM286 114Q316 114 333 118T357 136T365 179T367 256Q367 304 366 332T357 374T333 392T286 396Q256 396 240 392T216 374T208 332T206 256Q206 208 207 179T216 136T239 118T286 114Z" />
<glyph unicode="&#xf9;" horiz-adv-x="591" d="M217 -8Q166 -8 135 5T88 43T67 105T62 191V510H222V240Q222 199 224 176T234 141T255 128T293 125Q319 125 334 130T357 149T366 185T369 244V510H530V0H377L373 62H364Q350 36 328 21T278 -1T217 -8ZM256 576L123
716V721H279L370 582V576H256Z" />
<glyph unicode="&#xfa;" horiz-adv-x="591" d="M217 -8Q166 -8 135 5T88 43T67 105T62 191V510H222V240Q222 199 224 176T234 141T255 128T293 125Q319 125 334 130T357 149T366 185T369 244V510H530V0H377L373 62H364Q350 36 328 21T278 -1T217 -8ZM190 576V581L282
721H437V716L304 576H190Z" />
<glyph unicode="&#xfb;" horiz-adv-x="591" d="M217 -8Q166 -8 135 5T88 43T67 105T62 191V510H222V240Q222 199 224 176T234 141T255 128T293 125Q319 125 334 130T357 149T366 185T369 244V510H530V0H377L373 62H364Q350 36 328 21T278 -1T217 -8ZM127 576V584L221
721H370L464 584V576H360L295 657L230 576H127Z" />
<glyph unicode="&#xfc;" horiz-adv-x="591" d="M217 -8Q166 -8 135 5T88 43T67 105T62 191V510H222V240Q222 199 224 176T234 141T255 128T293 125Q319 125 334 130T357 149T366 185T369 244V510H530V0H377L373 62H364Q350 36 328 21T278 -1T217 -8ZM124 595V703H255V595H124ZM337
595V703H468V595H337Z" />
<glyph unicode="&#xfd;" horiz-adv-x="591" d="M277 -206Q246 -206 213 -205T151 -200T99 -194V-83Q130 -83 154 -83T199 -84T238 -84Q285 -84 312 -80T351 -65T366 -32T369 27V68H361Q347 44 326 30T278 9T217 2Q166 2 135 14T88 52T67 114T62 200V510H222V249Q222
208 224 185T234 150T255 136T293 133Q319 133 334 138T357 157T366 194T369 253V510H530V57Q530 -10 523 -59T492 -141T417 -190T277 -206ZM190 576V581L282 721H437V716L304 576H190Z" />
<glyph unicode="&#xfe;" horiz-adv-x="585" d="M62 -189V743H222V450H231Q247 479 268 493T317 513T372 518Q417 518 448 506T500 465T530 384T540 256Q540 180 531 129T501 48T450 5T373 -8Q328 -8 292 4T231 54H222V-189H62ZM300 124Q327 124 343 128T366 144T376
183T379 255Q379 301 377 327T367 366T343 382T300 386Q272 386 256 379T233 353Q226 337 224 313T222 255Q222 222 224 199T231 162Q238 140 254 132T300 124Z" />
<glyph unicode="&#xff;" horiz-adv-x="591" d="M277 -206Q246 -206 213 -205T151 -200T99 -194V-83Q130 -83 154 -83T199 -84T238 -84Q285 -84 312 -80T351 -65T366 -32T369 27V68H361Q347 44 326 30T278 9T217 2Q166 2 135 14T88 52T67 114T62 200V510H222V249Q222
208 224 185T234 150T255 136T293 133Q319 133 334 138T357 157T366 194T369 253V510H530V57Q530 -10 523 -59T492 -141T417 -190T277 -206ZM124 595V703H255V595H124ZM337 595V703H468V595H337Z" />
<glyph unicode="&#x2013;" horiz-adv-x="477" d="M44 246V361H433V246H44Z" />
<glyph unicode="&#x2014;" horiz-adv-x="878" d="M44 246V361H833V246H44Z" />
<glyph unicode="&#x2018;" horiz-adv-x="291" d="M64 412V514Q64 566 69 600T92 653T143 680T233 688V628Q206 628 191 623T171 604T166 565V549H226V412H64Z" />
<glyph unicode="&#x2019;" horiz-adv-x="291" d="M57 412V472Q86 472 100 477T119 496T124 536V552H64V688H226V587Q226 534 221 500T198 447T148 420T57 412Z" />
<glyph unicode="&#x201a;" horiz-adv-x="291" d="M57 -140V-79Q86 -79 100 -74T119 -55T124 -16V0H64V137H226V35Q226 -17 221 -51T198 -104T148 -132T57 -140Z" />
<glyph unicode="&#x201c;" horiz-adv-x="512" d="M286 412V514Q286 566 291 600T313 653T364 680T454 688V628Q427 628 412 623T392 604T387 565V549H447V412H286ZM64 412V514Q64 566 69 600T92 653T143 680T233 688V628Q206 628 191 623T171 604T166 565V549H226V412H64Z"
/>
<glyph unicode="&#x201d;" horiz-adv-x="512" d="M278 412V472Q307 472 321 477T340 496T345 536V552H286V688H447V587Q447 534 442 500T419 447T369 420T278 412ZM57 412V472Q86 472 100 477T119 496T124 536V552H64V688H226V587Q226 534 221 500T198 447T148
420T57 412Z" />
<glyph unicode="&#x201e;" horiz-adv-x="512" d="M278 -140V-79Q307 -79 321 -74T340 -55T345 -16V0H286V137H447V35Q447 -17 442 -51T419 -104T369 -132T278 -140ZM57 -140V-79Q86 -79 100 -74T119 -55T124 -16V0H64V137H226V35Q226 -17 221 -51T198 -104T148
-132T57 -140Z" />
<glyph unicode="&#x2022;" horiz-adv-x="393" d="M195 221Q151 221 127 225T92 242T78 279T75 342Q75 382 77 406T91 444T127 461T195 466Q239 466 264 462T300 444T315 407T318 342Q318 303 315 279T301 243T264 226T195 221Z" />
<glyph unicode="&#x2039;" horiz-adv-x="310" d="M155 99L23 304L155 510H258L153 304L258 99H155Z" />
<glyph unicode="&#x203a;" horiz-adv-x="310" d="M52 99L156 304L52 510H155L287 304L155 99H52Z" />
</font>
</defs>
</svg>
