<?xml version="1.0" standalone="no"?>
<!DOCTYPE svg PUBLIC "-//W3C//DTD SVG 1.1//EN" "http://www.w3.org/Graphics/SVG/1.1/DTD/svg11.dtd">
<svg xmlns="http://www.w3.org/2000/svg">
<defs >
<font id="Saira" horiz-adv-x="564" ><font-face
    font-family="Saira Thin Medium"
    units-per-em="1000"
    panose-1="0 0 0 0 0 0 0 0 0 0"
    ascent="1135"
    descent="-439"
    alphabetic="0" />
<glyph unicode=" " horiz-adv-x="241" />
<glyph unicode="!" horiz-adv-x="276" d="M102 211Q99 252 96 299T90 392T85 481T82 557T80 610V688H205V610Q205 590 204 557T201 482T195 393T189 299T183 211H102ZM83 0V115H203V0H83Z" />
<glyph unicode="&quot;" horiz-adv-x="390" d="M238 438L225 619V688H325V619L312 438H238ZM78 438L65 619V688H165V619L152 438H78Z" />
<glyph unicode="#" horiz-adv-x="770" d="M114 0L157 185H62V260H174L211 422H99V497H228L273 688H350L305 497H462L507 688H584L539 497H636V422H522L485 260H599V185H467L425 0H348L391 185H233L191 0H114ZM250 260H408L445 422H288L250 260Z" />
<glyph unicode="$" horiz-adv-x="538" d="M258 67Q230 68 198 70T136 75T80 82V169Q86 169 102 167T142 164T195 161T257 160Q308 159 331 165T361 186T368 227Q368 256 364 268T347 284T310 291L179 308Q130 315 106 334T72 385T63 460Q63 508 77 538T117 586T183
610T273 618Q311 618 339 617T392 612T445 603V516Q420 519 391 521T334 525T282 527Q252 527 231 525T196 517T176 498T169 462Q169 436 172 424T188 407T224 400L368 383Q405 378 428 365T462 321T474 230Q474 165 454 130T388 82T258 67ZM231 -8V696H311V-8H231Z"
/>
<glyph unicode="%" horiz-adv-x="843" d="M159 0L608 688H684L235 0H159ZM199 311Q147 311 118 320T75 350T58 408T54 503Q54 560 57 597T74 656T117 687T199 696Q251 696 280 687T322 656T338 597T342 503Q342 446 339 409T322 350T280 320T199 311ZM199 370Q225
370 240 372T261 387T270 426T272 503Q272 552 271 579T262 618T240 633T199 636Q172 636 157 634T135 619T126 579T124 503Q124 454 126 427T134 387T156 373T199 370ZM645 -8Q594 -8 565 1T522 31T505 89T501 184Q501 241 504 278T521 337T564 368T645 377Q697
377 726 368T768 337T785 278T789 184Q789 127 786 90T769 31T726 1T645 -8ZM645 51Q673 51 687 53T709 68T717 107T718 184Q718 233 717 260T709 299T688 314T645 317Q619 317 604 315T582 300T574 260T572 184Q572 135 573 108T582 68T604 54T645 51Z" />
<glyph unicode="&amp;" horiz-adv-x="737" d="M363 -8Q285 -8 231 1T144 28T93 69T70 122T63 184Q63 240 77 272T120 322T188 349V353Q128 367 99 403T69 515Q69 552 80 585T123 643T213 682T362 696Q395 696 435 693T514 686T586 676V591Q556 595 520 598T450
603T388 605Q318 605 276 600T213 582T184 549T177 497Q177 476 181 457T196 423T233 401T302 393H387V303H302Q259 303 233 297T193 277T176 242T171 192Q171 144 190 121T252 90T363 82Q391 82 417 83T468 86T518 91L485 39V393H702V303H590V12Q559 7 520 3T440
-5T363 -8Z" />
<glyph unicode="&apos;" horiz-adv-x="230" d="M78 438L65 619V688H165V619L152 438H78Z" />
<glyph unicode="(" horiz-adv-x="323" d="M228 -150Q193 -110 168 -78T125 -12T96 63T80 161T75 297Q75 376 80 432T96 531T124 607T167 673T228 743H303Q278 711 259 683T224 622T198 548T182 444T177 297Q177 210 182 149T197 45T223 -29T258 -89T303 -150H228Z" />
<glyph unicode=")" horiz-adv-x="323" d="M20 -150Q45 -118 65 -90T100 -30T125 45T141 149T146 297Q146 383 141 444T126 547T100 622T65 682T20 743H96Q130 705 155 673T198 607T227 531T243 433T248 297Q248 218 244 162T228 64T199 -11T156 -77T96 -150H20Z" />
<glyph unicode="*" horiz-adv-x="445" d="M190 320L198 461L78 382L46 441L174 503L46 567L78 626L198 546L190 688H255L245 547L366 626L398 567L270 503L398 441L366 382L246 461L255 320H190Z" />
<glyph unicode="+" horiz-adv-x="540" d="M227 52V210H70V295H227V452H312V295H470V210H312V52H227Z" />
<glyph unicode="," horiz-adv-x="248" d="M47 -130V-82Q73 -82 87 -77T106 -58T111 -17V0H64V115H184V29Q184 -19 179 -50T161 -99T120 -123T47 -130Z" />
<glyph unicode="-" horiz-adv-x="365" d="M56 238V332H309V238H56Z" />
<glyph unicode="." horiz-adv-x="248" d="M64 0V115H184V0H64Z" />
<glyph unicode="/" horiz-adv-x="376" d="M-6 -55L284 743H380L89 -55H-6Z" />
<glyph unicode="0" horiz-adv-x="668" d="M334 -8Q257 -8 208 1T131 34T89 97T73 197T69 344Q69 430 72 490T89 591T130 654T208 686T334 696Q410 696 459 687T537 654T578 591T595 491T599 344Q599 258 596 198T579 97T537 34T460 2T334 -8ZM334 88Q378 88 406
91T451 106T474 145T484 221T486 344Q486 419 484 467T475 542T451 582T407 597T334 600Q290 600 262 597T217 582T193 543T183 467T181 344Q181 269 183 221T192 146T216 106T261 91T334 88Z" />
<glyph unicode="1" horiz-adv-x="383" d="M170 0V562L31 499V597L204 688H283V0H170Z" />
<glyph unicode="2" horiz-adv-x="611" d="M64 0V85Q64 143 67 182T82 249T117 295T183 331L351 401Q386 415 403 427T426 458T432 505Q432 548 419 568T371 594T274 600Q251 600 218 598T148 593T78 587V676Q108 682 148 686T230 693T310 696Q359 696 401 691T475
667T526 613T545 514Q545 453 532 417T491 358T421 318L229 239Q204 229 192 217T177 185T174 133V97H545V0H64Z" />
<glyph unicode="3" horiz-adv-x="604" d="M267 -8Q234 -8 196 -6T121 1T57 11V100Q91 97 128 94T199 90T257 88Q313 88 349 94T403 122T421 192Q421 234 410 257T372 290T300 300H176V396H300Q334 396 359 404T399 433T413 497Q413 545 398 566T346 594T247 600Q219
600 186 598T119 594T61 587V677Q88 683 124 687T198 693T268 696Q343 696 393 685T472 650T515 594T528 515Q528 440 498 403T410 353V349Q449 341 477 324T520 274T535 184Q535 141 525 106T486 46T404 6T267 -8Z" />
<glyph unicode="4" horiz-adv-x="645" d="M394 0V153H42V238L305 688H429L166 249H394L421 464H507V249H604V153H507V0H394Z" />
<glyph unicode="5" horiz-adv-x="621" d="M289 -8Q257 -8 219 -6T143 1T77 11V100Q114 97 151 94T221 90T279 88Q329 88 361 93T410 112T435 148T442 206Q442 245 435 268T408 303T355 317T269 321Q246 321 215 320T150 316T85 309V688H506V591H188V409Q207 411
233 413T285 416T331 417Q402 417 446 405T514 367T548 304T557 217Q557 157 546 114T505 44T424 5T289 -8Z" />
<glyph unicode="6" horiz-adv-x="661" d="M345 -8Q277 -8 229 -2T149 23T99 83Q88 108 81 143T72 227T69 338Q69 394 71 439T80 520T97 582Q115 627 147 651T229 686T352 696Q379 696 415 693T490 686T563 676V586Q530 590 495 593T429 598T375 600Q311 600 273
592T215 559T190 489T184 369H190Q199 380 218 391T273 411T370 419Q431 419 474 411T546 383T587 324T601 222Q601 156 591 112T553 41T475 4T345 -8ZM337 88Q383 88 413 91T459 106T482 140T489 203Q489 244 483 268T460 304T415 319T337 323Q286 323 256 318T211
300T192 270T187 225Q187 177 194 150T219 109T264 92T337 88Z" />
<glyph unicode="7" horiz-adv-x="566" d="M127 0L399 591H38V688H522V600L252 0H127Z" />
<glyph unicode="8" horiz-adv-x="683" d="M341 -8Q256 -8 202 5T119 42T79 102T68 184Q68 242 82 274T125 323T193 349V353Q132 366 103 403T74 515Q74 560 87 594T129 650T211 684T341 696Q419 696 471 685T552 651T595 594T608 515Q608 440 579 403T489 353V349Q530
340 557 324T599 275T614 184Q614 138 603 103T562 43T480 5T341 -8ZM341 88Q402 88 436 94T485 123T499 192Q499 228 492 249T468 282T420 297T341 301Q292 301 262 297T215 282T191 250T184 192Q184 146 197 124T245 95T341 88ZM341 395Q404 395 436 403T481
433T493 497Q493 541 482 563T438 593T341 601Q277 601 245 593T201 563T190 497Q190 455 201 433T246 403T341 395Z" />
<glyph unicode="9" horiz-adv-x="661" d="M309 -8Q282 -8 246 -5T171 2T99 12V102Q132 98 166 95T233 90T286 88Q351 88 389 96T446 129T472 199T478 319H472Q462 308 443 297T388 277T291 269Q230 269 187 277T115 305T74 364T61 466Q61 532 71 576T108 647T186
684T316 696Q390 696 440 689T521 660T569 590Q582 552 587 493T592 350Q592 289 589 241T579 156T557 91Q539 53 507 31T427 1T309 -8ZM324 365Q376 365 406 370T451 388T470 418T475 463Q475 511 468 538T443 579T397 596T324 600Q278 600 249 597T202 582T179
548T172 485Q172 444 178 420T201 384T247 369T324 365Z" />
<glyph unicode=":" horiz-adv-x="248" d="M64 395V510H184V395H64ZM64 0V115H184V0H64Z" />
<glyph unicode=";" horiz-adv-x="248" d="M47 -130V-82Q73 -82 87 -77T106 -58T111 -17V0H64V115H184V29Q184 -19 179 -50T161 -99T120 -123T47 -130ZM64 395V510H184V395H64Z" />
<glyph unicode="&lt;" horiz-adv-x="541" d="M471 45L71 206V299L471 461V373L161 253L471 132V45Z" />
<glyph unicode="=" horiz-adv-x="540" d="M70 310V395H470V310H70ZM70 110V195H470V110H70Z" />
<glyph unicode="&gt;" horiz-adv-x="541" d="M70 45V132L380 253L70 373V461L470 299V206L70 45Z" />
<glyph unicode="?" horiz-adv-x="507" d="M148 210V286Q148 324 155 345T178 377T217 397L257 410Q288 421 302 431T322 459T328 513Q328 555 316 573T275 595T196 600Q181 600 162 599T120 597T77 593T37 589V679Q67 684 102 688T173 694T237 696Q293 696 332
686T395 653T430 597T441 513Q441 481 437 455T423 410T398 378T362 356L318 342Q294 334 279 328T258 314T249 295T247 261V210H148ZM138 0V115H258V0H138Z" />
<glyph unicode="@" horiz-adv-x="933" d="M466 -108Q353 -108 281 -100T168 -67T108 1T85 117T80 294Q80 399 84 470T107 587T167 655T281 687T466 696Q580 696 652 688T765 657T825 589T848 472T852 294Q852 213 846 168T824 104T783 80T721 75H569L564 132H557Q543
103 520 90T471 72T416 68Q368 68 338 80T292 121T277 198Q277 248 288 277T328 318T410 330Q425 330 451 330T507 328T561 326V348Q561 381 557 399T540 425T504 436T437 439Q425 439 406 439T367 437T330 435T304 432V505Q343 511 386 514T470 518Q533 518 570
509T626 478T651 425T657 345V124H732Q750 124 762 127T783 146T794 196T797 294Q797 385 795 446T780 547T743 606T670 635Q635 642 585 643T465 645Q406 645 362 644T282 638Q229 631 198 612T154 555T137 454T133 294Q133 189 137 123T160 19T217 -34T327 -54Q354
-55 389 -56T466 -57Q484 -57 513 -57T572 -56T626 -54T657 -53V-104Q639 -105 619 -105T576 -106T526 -107T466 -108ZM455 141Q498 141 520 150T552 180T561 242V268H435Q407 268 393 264T375 246T370 206Q370 179 375 165T399 146T455 141Z" />
<glyph unicode="A" horiz-adv-x="684" d="M22 0L268 688H416L662 0H545L485 170H195L136 0H22ZM227 266H452L342 579H337L227 266Z" />
<glyph unicode="B" horiz-adv-x="679" d="M92 0V688H419Q487 688 528 668T588 609T607 515Q607 469 595 436T556 383T489 353V349Q537 340 564 318T603 262T614 182Q614 143 605 110T575 52T515 14T418 0H92ZM205 95H384Q430 95 455 104T490 136T501 197Q501 236
490 258T454 290T384 300H205V95ZM205 396H380Q421 396 445 406T482 437T494 493Q494 531 484 552T450 583T380 592H205V396Z" />
<glyph unicode="C" horiz-adv-x="573" d="M351 -8Q277 -8 227 1T146 34T98 96T75 197T69 344Q69 430 75 491T97 591T145 654T227 686T351 696Q380 696 410 694T469 689T517 680V590Q492 593 468 595T420 599T380 600Q325 600 289 596T232 578T200 537T186 462T182
344Q182 274 185 227T199 152T231 110T289 92T380 88Q413 88 452 91T521 98V6Q499 2 470 -1T410 -6T351 -8Z" />
<glyph unicode="D" horiz-adv-x="686" d="M92 0V688H317Q404 688 459 680T547 649T593 588T612 489T616 344Q616 259 612 199T594 100T547 39T460 9T317 0H92ZM205 96H307Q363 96 399 98T457 112T488 150T500 223T503 344Q503 417 501 464T488 537T456 575T398
589T307 592H205V96Z" />
<glyph unicode="E" horiz-adv-x="606" d="M92 0V688H550V592H205V395H503V299H205V96H550V0H92Z" />
<glyph unicode="F" horiz-adv-x="568" d="M92 0V688H530V592H205V379H493V283H205V0H92Z" />
<glyph unicode="G" horiz-adv-x="672" d="M366 -8Q292 -8 241 1T155 34T103 97T77 197T69 344Q69 430 76 490T103 591T156 654T241 686T366 696Q399 696 438 693T517 686T588 675V585Q554 590 521 593T461 598T415 600Q355 600 314 598T247 583T207 544T188 468T182
344Q182 277 185 232T200 157T232 112T286 91T369 85Q388 85 409 86T450 88T482 92V287H347V381H591V13Q557 7 517 3T437 -5T366 -8Z" />
<glyph unicode="H" horiz-adv-x="728" d="M92 0V688H205V396H523V688H636V0H523V297H205V0H92Z" />
<glyph unicode="I" horiz-adv-x="296" d="M92 0V688H205V0H92Z" />
<glyph unicode="J" horiz-adv-x="372" d="M30 0V91Q84 92 113 96T155 116T170 165T173 256V688H286V289Q286 206 283 152T267 67T227 22T152 4T30 0Z" />
<glyph unicode="K" horiz-adv-x="673" d="M92 0V688H205V398H301L526 688H650L393 357L653 0H522L301 302H205V0H92Z" />
<glyph unicode="L" horiz-adv-x="539" d="M92 0V688H205V99H510V0H92Z" />
<glyph unicode="M" horiz-adv-x="901" d="M92 0V688H246L448 188H453L655 688H809V0H700V513H696L488 0H408L202 513H198V0H92Z" />
<glyph unicode="N" horiz-adv-x="728" d="M92 0V688H209L524 212H528V688H636V0H528L204 491H200V0H92Z" />
<glyph unicode="O" horiz-adv-x="712" d="M355 -8Q273 -8 220 1T136 34T91 97T73 197T69 344Q69 430 73 490T91 591T136 654T220 686T355 696Q437 696 490 687T575 654T620 591T639 491T643 344Q643 258 639 198T621 97T575 34T491 2T355 -8ZM355 88Q405 88 437
91T488 106T516 145T527 220T530 344Q530 420 528 467T516 542T489 582T438 597T355 600Q306 600 274 597T223 582T196 543T185 468T182 344Q182 268 184 221T195 146T223 106T274 91T355 88Z" />
<glyph unicode="P" horiz-adv-x="650" d="M92 0V688H400Q465 688 505 672T566 627T595 556T603 465Q603 418 596 378T568 307T505 259T397 242H205V0H92ZM205 338H354Q401 338 429 344T469 365T486 404T490 465Q490 502 487 526T471 565T431 586T357 592H205V338Z" />
<glyph unicode="Q" horiz-adv-x="712" d="M536 -115L304 218H424L665 -113V-115H536ZM355 -8Q273 -8 220 1T136 34T91 97T73 197T69 344Q69 430 73 490T91 591T136 654T220 686T355 696Q437 696 490 687T575 654T620 591T639 491T643 344Q643 258 639 198T621
97T575 34T491 2T355 -8ZM355 88Q405 88 437 91T488 106T516 145T527 220T530 344Q530 420 528 467T516 542T489 582T438 597T355 600Q306 600 274 597T223 582T196 543T185 468T182 344Q182 268 184 221T195 146T223 106T274 91T355 88Z" />
<glyph unicode="R" horiz-adv-x="679" d="M92 0V688H413Q478 688 518 673T578 630T605 562T612 475Q612 441 606 401T578 327T510 278L623 0H503L393 281L422 266Q415 263 406 263T383 262H205V0H92ZM205 358H365Q412 358 439 364T479 385T495 421T499 475Q499
508 496 530T480 566T442 586T369 592H205V358Z" />
<glyph unicode="S" horiz-adv-x="624" d="M326 -8Q289 -8 245 -6T158 -1T80 7V100Q116 97 155 94T231 90T293 88Q346 88 376 93T424 109Q436 117 441 129T448 157T450 194Q450 221 448 239T439 267T417 281T378 289L214 308Q166 314 136 328T89 367T66 424T60
497Q60 564 78 603T129 662T209 689T311 696Q350 696 391 694T468 688T529 678V587Q504 591 471 594T401 598T334 600Q282 600 251 596T202 581Q182 570 178 551T174 502Q174 468 178 450T199 424T250 413L414 394Q445 391 470 385T514 363T545 320Q552 306 555
288T561 249T564 200Q564 143 553 105T521 45T470 11T404 -4T326 -8Z" />
<glyph unicode="T" horiz-adv-x="580" d="M234 0V589H25V688H555V589H347V0H234Z" />
<glyph unicode="U" horiz-adv-x="704" d="M352 -8Q281 -8 233 0T156 29T111 84T90 174T84 304V688H197V269Q197 211 201 175T219 120T265 95T352 88Q408 88 439 94T484 120T502 175T506 269V688H619V304Q619 228 614 174T593 85T549 29T471 1T352 -8Z" />
<glyph unicode="V" horiz-adv-x="663" d="M257 0L23 688H140L331 124H336L525 688H639L405 0H257Z" />
<glyph unicode="W" horiz-adv-x="989" d="M208 0L30 688H144L282 137H287L438 688H556L709 137H715L846 688H959L781 0H643L497 521H493L346 0H208Z" />
<glyph unicode="X" horiz-adv-x="675" d="M23 0L269 345L27 688H159L336 439H344L520 688H649L407 348L652 0H520L339 256H331L151 0H23Z" />
<glyph unicode="Y" horiz-adv-x="615" d="M250 0V253L7 688H127L306 365H313L490 688H607L363 253V0H250Z" />
<glyph unicode="Z" horiz-adv-x="609" d="M50 0V91L413 592H61V688H556V599L191 95H561V0H50Z" />
<glyph unicode="[" horiz-adv-x="351" d="M92 -150V743H308V669L189 665V-72L308 -76V-150H92Z" />
<glyph unicode="\" horiz-adv-x="376" d="M285 -55L-6 743H90L380 -55H285Z" />
<glyph unicode="]" horiz-adv-x="351" d="M43 -150V-76L162 -72V665L43 669V743H259V-150H43Z" />
<glyph unicode="^" horiz-adv-x="449" d="M39 444L180 749H269L409 444H327L225 675L122 444H39Z" />
<glyph unicode="_" horiz-adv-x="368" d="M0 -176V-91H368V-176H0Z" />
<glyph unicode="`" horiz-adv-x="208" d="M130 588L0 725V730H110L208 593V588H130Z" />
<glyph unicode="a" horiz-adv-x="566" d="M209 -8Q157 -8 122 6T68 52T50 141Q50 200 64 234T112 284T208 299Q218 299 237 299T282 298T333 297T380 295V319Q380 358 375 380T355 412T310 426T235 429Q213 429 184 428T126 424T83 419V503Q124 511 173 514T271
518Q328 518 366 511T429 489T465 450T482 393T487 316V0H389L385 66H379Q362 34 334 18T272 -3T209 -8ZM256 78Q281 78 301 81T337 93T362 117Q371 134 375 156T380 208V226H234Q201 226 184 221T160 200T154 151Q154 120 161 105T190 84T256 78Z" />
<glyph unicode="b" horiz-adv-x="587" d="M346 -8Q314 -8 284 -3T228 19T187 67H180L177 0H79V743H185V450H191Q206 477 229 491T283 512T349 518Q400 518 434 505T488 463T518 383T528 255Q528 178 518 128T487 48T432 5T346 -8ZM302 86Q342 86 365 91T401 114T417
164T421 255Q421 312 417 345T401 395T366 417T302 423Q263 423 240 414T205 384Q192 362 189 331T185 255Q185 212 188 180T204 126Q216 105 239 96T302 86Z" />
<glyph unicode="c" horiz-adv-x="461" d="M270 -8Q211 -8 173 2T111 33T77 85T63 159T59 256Q59 309 63 351T79 424T115 476T175 507T268 518Q304 518 343 514T409 504V420Q387 424 355 426T295 429Q252 429 227 422T188 396T171 343T166 255Q166 200 170 165T188
112T228 88T297 81Q322 81 353 83T414 90V6Q387 0 347 -4T270 -8Z" />
<glyph unicode="d" horiz-adv-x="587" d="M241 -8Q190 -8 155 4T99 46T69 127T59 254Q59 331 68 382T98 462T153 505T237 518Q274 518 304 512T357 492T395 450H402V743H508V0H410L406 67H400Q385 35 360 19T303 -2T241 -8ZM284 86Q328 86 352 97T387 134Q397
157 399 187T402 257Q402 295 400 323T388 372Q377 399 353 411T284 423Q244 423 221 418T186 396T170 346T166 255Q166 198 170 165T186 114T221 92T284 86Z" />
<glyph unicode="e" horiz-adv-x="558" d="M296 -8Q231 -8 188 0T119 28T80 78T63 152T59 254Q59 323 66 373T95 455T163 503T288 518Q349 518 388 509T449 479T482 428T496 353T499 254V220H166Q166 175 170 148T188 106T234 86T320 80Q343 80 370 81T427 85T479
90V7Q457 3 426 0T361 -6T296 -8ZM397 277V296Q397 341 392 367T374 407T340 425T286 430Q246 430 223 425T187 404T171 363T166 293H415L397 277Z" />
<glyph unicode="f" horiz-adv-x="388" d="M125 0V421H24V510H125V572Q125 621 132 652T155 702T199 728T267 739T361 742V662Q319 662 294 660T255 650T237 629T232 591V510H361V421H232V0H125Z" />
<glyph unicode="g" horiz-adv-x="587" d="M269 -206Q237 -206 204 -205T142 -201T93 -196V-112Q114 -114 141 -115T195 -116T245 -117Q299 -117 330 -111T377 -88T397 -40T402 40V65H396Q382 38 360 23T307 2T241 -4Q189 -4 155 8T99 50T69 129T59 255Q59 332
68 382T99 462T155 505T242 518Q272 518 303 513T359 491T400 442H406L410 510H508V63Q508 -9 501 -60T470 -143T399 -190T269 -206ZM284 89Q325 89 349 99T384 131Q396 152 399 182T402 256Q402 297 399 328T385 380Q373 403 349 413T284 424Q245 424 222 419T186
396T170 346T166 256Q166 200 170 167T186 117T221 95T284 89Z" />
<glyph unicode="h" horiz-adv-x="596" d="M79 0V743H185V447H192Q204 470 224 485T274 509T349 517Q403 517 436 505T487 468T510 406T517 319V0H410V277Q410 327 407 356T392 400T360 419T302 423Q262 423 239 413T204 383T189 333T185 263V0H79Z" />
<glyph unicode="i" horiz-adv-x="264" d="M77 638V743H188V638H77ZM79 0V510H185V0H79Z" />
<glyph unicode="j" horiz-adv-x="264" d="M77 638V743H188V638H77ZM-13 -200V-118Q30 -118 49 -113T74 -96T79 -64V510H185V-41Q185 -96 176 -128T145 -175T84 -195T-13 -200Z" />
<glyph unicode="k" horiz-adv-x="546" d="M79 0V743H185V301H238L401 510H518L323 264L521 0H400L238 212H185V0H79Z" />
<glyph unicode="l" horiz-adv-x="264" d="M79 0V743H185V0H79Z" />
<glyph unicode="m" horiz-adv-x="876" d="M79 0V510H177L180 442H187Q198 466 217 483T266 509T338 518Q402 518 434 500T479 442H487Q498 466 518 483T569 509T642 518Q708 518 741 496T785 430T796 319V0H690V277Q690 327 687 356T675 400T646 419T595 423Q559
423 538 414T507 385T494 335T491 263V0H385V277Q385 327 382 356T369 400T340 419T289 423Q254 423 233 413T202 384T188 334T185 263V0H79Z" />
<glyph unicode="n" horiz-adv-x="596" d="M79 0V510H177L180 442H188Q200 467 220 483T272 509T350 518Q404 518 437 506T487 468T510 406T517 319V0H410V277Q410 327 407 356T392 400T360 419T302 423Q262 423 239 413T204 383T189 333T185 263V0H79Z" />
<glyph unicode="o" horiz-adv-x="575" d="M287 -8Q223 -8 181 0T114 25T78 73T63 148T59 256Q59 318 62 363T77 438T113 485T180 510T287 518Q352 518 394 511T461 486T497 438T512 363T516 256Q516 193 513 148T498 73T462 26T395 0T287 -8ZM287 81Q333 81 358
87T393 111T406 164T409 256Q409 313 407 347T394 400T358 423T287 429Q242 429 217 424T182 400T169 348T166 256Q166 199 168 164T181 111T217 87T287 81Z" />
<glyph unicode="p" horiz-adv-x="587" d="M79 -199V510H177L180 442H187Q203 474 228 490T283 512T346 518Q397 518 431 506T487 464T518 383T528 256Q528 179 519 128T489 48T434 5T349 -8Q313 -8 283 -2T230 18T192 60H185V-199H79ZM302 87Q342 87 365 92T401
114T417 164T421 255Q421 312 417 345T401 396T366 418T302 424Q260 424 236 412T200 376Q190 355 188 325T185 255Q185 215 187 186T199 136Q211 110 235 99T302 87Z" />
<glyph unicode="q" horiz-adv-x="588" d="M402 -199V60H396Q381 33 358 19T304 -2T237 -8Q187 -8 153 4T99 46T69 127T59 254Q59 331 68 382T99 462T155 505T241 518Q273 518 304 513T360 491T400 442H406L410 510H508V-199H402ZM284 87Q329 87 353 99T389 138Q397
159 399 188T402 255Q402 297 399 329T383 383Q372 404 348 414T284 424Q245 424 222 419T186 396T170 346T166 255Q166 198 170 165T186 115T221 93T284 87Z" />
<glyph unicode="r" horiz-adv-x="380" d="M79 0V510H176L180 418H188Q201 458 224 480T280 510T355 518V414Q287 414 251 394T200 331T185 217V0H79Z" />
<glyph unicode="s" horiz-adv-x="498" d="M257 -8Q227 -8 193 -6T125 -1T66 6V90Q83 89 104 87T150 84T197 82T242 81Q290 81 311 87T339 107T346 145Q346 171 342 183T325 199T288 206L164 221Q116 226 92 243T59 291T50 366Q50 417 64 447T105 493T170 513T253
518Q281 518 311 516T370 511T420 503V419Q396 422 368 424T313 427T260 429Q223 429 199 426T164 410T152 367Q152 344 155 333T170 317T206 309L340 293Q378 289 401 278T436 237T448 147Q448 97 436 67T398 20T338 -2T257 -8Z" />
<glyph unicode="t" horiz-adv-x="374" d="M125 0V421H23V510H125V658H231V510H350V421H231V0H125Z" />
<glyph unicode="u" horiz-adv-x="596" d="M246 -8Q193 -8 160 4T109 42T85 104T79 191V510H185V233Q185 183 188 154T203 110T235 91T293 87Q333 87 357 97T392 127T407 177T410 247V510H517V0H419L415 68H408Q397 44 377 27T324 1T246 -8Z" />
<glyph unicode="v" horiz-adv-x="534" d="M199 0L22 510H133L265 104H273L403 510H512L337 0H199Z" />
<glyph unicode="w" horiz-adv-x="824" d="M181 0L27 510H136L244 122H251L364 510H463L575 122H583L690 510H797L642 0H516L415 336H407L308 0H181Z" />
<glyph unicode="x" horiz-adv-x="551" d="M25 0L210 259L31 510H151L274 337H280L404 510H518L340 260L526 0H406L275 181H269L139 0H25Z" />
<glyph unicode="y" horiz-adv-x="596" d="M281 -206Q252 -206 221 -205T161 -201T110 -196V-113Q146 -114 172 -115T220 -116T257 -117Q311 -117 342 -110T388 -86T406 -40T410 35V66H404Q394 44 375 29T324 5T246 -4Q193 -4 160 8T109 45T85 107T79 193V510H185V235Q185
185 188 156T203 112T235 94T293 89Q333 89 357 99T392 129T407 179T410 249V510H517V60Q517 -11 510 -61T479 -144T408 -191T281 -206Z" />
<glyph unicode="z" horiz-adv-x="514" d="M51 0V82L325 421H63V510H462V428L188 89H464V0H51Z" />
<glyph unicode="{" horiz-adv-x="338" d="M240 -150Q221 -141 200 -124T161 -83T133 -31T122 30V147Q122 174 115 202T88 249T25 269V323Q67 323 87 342T115 390T122 446V562Q122 594 132 622T161 675T200 716T240 743H318Q301 731 284 712T253 670T229 621T220
568V446Q220 389 196 351T115 300V293Q172 281 196 243T220 146V25Q220 -2 229 -28T252 -77T284 -119T318 -150H240Z" />
<glyph unicode="|" horiz-adv-x="283" d="M94 -161V743H189V-161H94Z" />
<glyph unicode="}" horiz-adv-x="338" d="M19 -150Q35 -138 52 -119T84 -77T108 -28T117 25V146Q117 204 141 242T222 293V300Q166 312 142 350T117 446V568Q117 595 108 621T85 670T53 712T19 743H96Q117 734 137 717T176 675T204 623T215 562V446Q215 419 222
391T249 343T311 323V269Q269 269 249 250T222 202T215 147V30Q215 -2 205 -30T176 -82T138 -123T96 -150H19Z" />
<glyph unicode="~" horiz-adv-x="497" d="M62 235Q62 276 66 303T88 345T142 359Q172 359 202 352T261 337Q284 331 306 326T346 320Q368 320 371 330T375 370H433Q433 329 429 302T408 260T354 246Q324 246 294 253T235 268Q212 274 190 279T150 285Q129 285
125 275T121 235H62Z" />
<glyph unicode="&#xa0;" horiz-adv-x="241" />
<glyph unicode="&#xa1;" horiz-adv-x="267" d="M71 -178V-100Q71 -80 72 -47T75 28T81 117T87 211T93 299H174Q177 258 180 211T186 118T191 29T194 -47T196 -100V-178H71ZM73 395V510H193V395H73Z" />
<glyph unicode="&#xa2;" horiz-adv-x="468" d="M263 67Q197 67 157 86T95 140T67 226T60 342Q60 397 65 440T85 517T122 573T181 606T265 618Q292 618 317 617T366 613T413 604V516Q391 520 359 523T300 526Q258 525 233 519T194 493T177 437T172 342Q172 283
177 247T196 192T235 167T302 160Q329 160 362 162T417 170V82Q397 76 377 73T329 68T263 67ZM240 -8V696H319V-8H240Z" />
<glyph unicode="&#xa3;" horiz-adv-x="594" d="M50 0V96H124V308H50V402H125V418Q125 497 136 551T176 636T256 682T385 696Q425 696 468 692T537 680V591Q517 594 494 596T449 599T413 600Q356 600 321 593T269 567T245 511T238 418V402H462V308H238V96H549V0H50Z" />
<glyph unicode="&#xa4;" horiz-adv-x="693" d="M119 -4L59 55L143 139Q127 171 122 221T117 345Q117 417 121 467T142 549L59 632L119 692L209 602Q233 612 267 615T346 619Q391 619 425 616T483 602L574 693L633 633L550 549Q566 518 570 468T574 345Q574 272
570 222T549 139L634 54L574 -5L482 86Q458 77 425 73T346 69Q301 69 267 73T209 86L119 -4ZM346 158Q391 158 416 164T452 190T465 246T467 345Q467 407 465 443T453 499T417 524T346 530Q301 530 276 524T240 499T227 444T224 345Q224 284 226 247T239 190T275
165T346 158Z" />
<glyph unicode="&#xa5;" horiz-adv-x="626" d="M255 0V228H59V295H237L27 688H146L310 357H317L482 688H597L386 295H565V228H368V0H255ZM59 387V454H565V387H59Z" />
<glyph unicode="&#xa6;" horiz-adv-x="283" d="M94 390V743H189V390H94ZM94 -161V192H189V-161H94Z" />
<glyph unicode="&#xa7;" horiz-adv-x="694" d="M328 -171Q289 -171 254 -169T190 -163T144 -157V-69Q158 -71 179 -72T226 -75T277 -76Q344 -76 379 -73T429 -56T443 -12Q443 14 439 26T424 46T389 60L173 121Q144 130 122 140T84 166T61 209T53 276Q53 307 57
336T71 388T102 427T156 447Q146 466 144 489T142 538Q142 586 157 617T203 665T274 689T366 696Q405 696 440 694T504 689T549 682V594Q526 597 489 598T416 600Q350 600 314 597T264 580T250 537Q250 511 254 498T271 477T308 463L520 402Q549 394 571 384T609
357T632 314T640 247Q640 216 636 188T622 135T591 96T537 76Q547 57 549 34T551 -14Q551 -62 536 -93T491 -140T420 -164T328 -171ZM157 296Q157 268 161 252T178 228T214 214L432 152Q447 148 461 145T487 141Q511 141 524 161T537 227Q537 256 532 271T515 295T478
310L261 370Q245 374 232 378T207 382Q182 382 170 362T157 296Z" />
<glyph unicode="&#xa8;" horiz-adv-x="300" d="M0 616V707H95V616H0ZM205 616V707H300V616H205Z" />
<glyph unicode="&#xa9;" horiz-adv-x="737" d="M368 -8Q285 -8 231 0T147 30T103 90T86 192T82 344Q82 434 85 496T102 597T146 658T231 687T368 696Q452 696 505 688T589 658T634 598T651 496T655 344Q655 254 652 192T634 91T590 30T506 1T368 -8ZM391 153Q341
153 311 162T266 192T245 250T239 342Q239 398 244 434T265 492T311 522T391 531Q416 531 441 529T481 523V469Q463 471 442 472T406 474Q371 474 351 471T322 454T310 415T307 342Q307 297 309 270T321 230T351 214T406 210Q424 210 445 211T483 215V160Q467 157
441 155T391 153ZM368 40Q437 40 482 44T552 63T588 111T602 200T605 344Q605 431 603 487T589 576T552 624T482 643T368 647Q299 647 255 643T185 624T149 577T135 488T132 344Q132 256 134 200T148 111T185 63T254 44T368 40Z" />
<glyph unicode="&#xaa;" horiz-adv-x="411" d="M154 313Q115 313 90 323T52 358T40 424Q40 466 49 490T83 526T153 537Q164 537 185 537T231 535T276 533V551Q276 587 270 603T240 623T169 627Q156 627 138 626T100 624T62 620V685Q91 689 128 692T200 696Q252
696 284 688T332 661T353 615T358 548V317H282L277 360H273Q258 339 238 329T196 316T154 313ZM190 376Q209 376 224 378T249 386T267 404Q272 416 274 431T276 467V483H174Q139 483 129 473T118 431Q118 397 131 387T190 376Z" />
<glyph unicode="&#xab;" horiz-adv-x="483" d="M170 99L38 304L170 510H243L132 304L243 99H170ZM347 99L215 304L347 510H419L309 304L419 99H347Z" />
<glyph unicode="&#xac;" horiz-adv-x="539" d="M386 53V211H70V297H469V53H386Z" />
<glyph unicode="&#xad;" horiz-adv-x="365" d="M56 238V332H309V238H56Z" />
<glyph unicode="&#xae;" horiz-adv-x="737" d="M368 -8Q285 -8 231 0T147 30T103 90T86 192T82 344Q82 434 85 496T102 597T146 658T231 687T368 696Q452 696 505 688T589 658T634 598T651 496T655 344Q655 254 652 192T634 91T590 30T506 1T368 -8ZM368 40Q437
40 482 44T552 63T588 111T602 200T605 344Q605 431 603 487T589 576T552 624T482 643T368 647Q299 647 255 643T185 624T149 577T135 488T132 344Q132 256 134 200T148 111T185 63T254 44T368 40ZM232 158V528H399Q452 528 476 513T507 472T514 413Q514 381 505
351T459 307L521 158H449L394 297H298V158H232ZM298 353H372Q408 353 423 359T443 378T447 412Q447 435 443 447T424 465T378 471H298V353Z" />
<glyph unicode="&#xaf;" horiz-adv-x="302" d="M0 616V687H302V616H0Z" />
<glyph unicode="&#xb0;" horiz-adv-x="392" d="M196 397Q147 397 119 404T78 430T62 476T59 546Q59 587 62 615T78 662T119 688T196 696Q245 696 273 688T313 662T329 616T333 546Q333 505 330 477T314 430T273 405T196 397ZM196 451Q229 451 243 458T260 485T263
546Q263 586 260 606T243 634T196 641Q162 641 148 634T131 607T128 546Q128 506 131 486T148 458T196 451Z" />
<glyph unicode="&#xb1;" horiz-adv-x="540" d="M227 184V342H70V427H227V584H312V427H470V342H312V184H227ZM70 0V85H470V0H70Z" />
<glyph unicode="&#xb2;" horiz-adv-x="355" d="M38 420V469Q38 511 41 536T57 576T101 603L200 643Q220 651 228 656T239 670T241 696Q241 718 234 728T210 741T160 744Q141 744 109 743T46 738V792Q72 797 109 800T179 803Q216 803 247 797T296 770T315 701Q315
668 308 648T284 615T241 591L132 548Q122 545 118 541T112 529T110 509V479H315V420H38Z" />
<glyph unicode="&#xb3;" horiz-adv-x="350" d="M155 416Q128 416 94 419T34 426V479Q63 477 95 475T147 473Q192 473 213 482T235 527Q235 560 221 571T171 583H99V640H171Q189 640 203 643T224 658T231 692Q231 716 223 727T195 741T141 744Q119 744 90 743T36
738V793Q60 797 94 800T156 803Q213 803 245 793T291 761T305 704Q305 662 288 642T238 614V612Q272 605 290 587T309 521Q309 487 297 464T252 428T155 416Z" />
<glyph unicode="&#xb4;" horiz-adv-x="208" d="M0 588V593L98 731H208V726L78 588H0Z" />
<glyph unicode="&#xb5;" horiz-adv-x="596" d="M79 -189V510H185V233Q185 183 188 154T203 110T235 91T293 87Q333 87 357 97T392 127T407 177T410 247V510H517V0H419L415 68H408Q397 44 377 27T324 1T246 -8Q215 -8 189 2T142 34T99 86L201 34H185V-189H79Z" />
<glyph unicode="&#xb6;" horiz-adv-x="604" d="M303 -144V222Q233 222 188 227T117 245T78 284T63 351T59 454Q59 515 62 556T78 624T116 664T188 683T303 688H379V-144H303ZM445 -144V688H520V-144H445Z" />
<glyph unicode="&#xb7;" horiz-adv-x="248" d="M64 242V357H184V242H64Z" />
<glyph unicode="&#xb8;" horiz-adv-x="144" d="M0 -190V-185L73 18H144V13L103 -190H0Z" />
<glyph unicode="&#xb9;" horiz-adv-x="228" d="M97 420V723L18 687V748L118 798H169V420H97Z" />
<glyph unicode="&#xba;" horiz-adv-x="426" d="M212 313Q154 313 120 323T70 355T51 415T46 504Q46 556 50 593T70 652T119 685T212 696Q272 696 306 686T355 653T375 593T380 504Q380 452 376 415T356 356T306 323T212 313ZM213 381Q245 381 262 385T287 402T296
438T298 504Q298 544 296 569T287 606T263 623T213 628Q181 628 164 624T139 607T130 569T128 504Q128 463 130 439T139 402T163 386T213 381Z" />
<glyph unicode="&#xbb;" horiz-adv-x="483" d="M63 99L174 304L63 510H136L268 304L136 99H63ZM240 99L350 304L240 510H312L444 304L312 99H240Z" />
<glyph unicode="&#xbc;" horiz-adv-x="677" d="M97 308V611L18 575V636L118 686H169V308H97ZM40 0L489 688H566L117 0H40ZM531 0V82H333V132L469 378H549L410 139H532L552 251H603V139H655V82H603V0H531Z" />
<glyph unicode="&#xbd;" horiz-adv-x="732" d="M97 308V611L18 575V636L118 686H169V308H97ZM40 0L489 688H566L117 0H40ZM415 0V49Q415 91 418 116T434 156T478 183L577 223Q597 231 605 236T616 250T618 276Q618 298 611 308T587 321T537 324Q518 324 486 323T423
318V372Q449 377 486 380T556 383Q593 383 624 377T673 350T692 281Q692 248 685 228T661 195T618 171L509 128Q499 125 495 121T489 109T487 89V59H692V0H415Z" />
<glyph unicode="&#xbe;" horiz-adv-x="799" d="M155 304Q128 304 94 307T34 314V367Q63 365 95 363T147 361Q192 361 213 370T235 415Q235 448 221 459T171 471H99V528H171Q189 528 203 532T224 547T231 581Q231 604 223 615T195 629T141 632Q119 632 90 631T36
626V681Q60 685 94 688T156 691Q213 691 245 681T291 649T305 592Q305 550 288 530T238 502V500Q272 493 290 475T309 409Q309 375 297 352T252 316T155 304ZM162 0L611 688H688L239 0H162ZM654 0V82H456V132L592 378H672L533 139H655L675 251H726V139H778V82H726V0H654Z"
/>
<glyph unicode="&#xbf;" horiz-adv-x="444" d="M263 -186Q207 -186 168 -176T105 -143T70 -87T59 -3Q59 29 63 55T77 100T102 132T139 154L182 169Q207 177 221 182T243 195T251 215T253 249V300H352V224Q352 187 345 166T322 133T284 113L250 102Q216 91 200
81T178 52T172 -3Q172 -44 184 -62T226 -85T304 -90Q319 -90 339 -89T380 -87T423 -83T463 -79V-169Q433 -174 398 -178T328 -184T263 -186ZM242 395V510H362V395H242Z" />
<glyph unicode="&#xc0;" horiz-adv-x="684" d="M22 0L268 688H416L662 0H545L485 170H195L136 0H22ZM227 266H452L342 579H337L227 266ZM318 767L188 903V909H298L396 772V767H318Z" />
<glyph unicode="&#xc1;" horiz-adv-x="684" d="M22 0L268 688H416L662 0H545L485 170H195L136 0H22ZM227 266H452L342 579H337L227 266ZM279 766V771L377 909H487V904L357 766H279Z" />
<glyph unicode="&#xc2;" horiz-adv-x="684" d="M22 0L268 688H416L662 0H545L485 170H195L136 0H22ZM227 266H452L342 579H337L227 266ZM189 767V773L288 909H395L494 773V767H422L341 857L260 767H189Z" />
<glyph unicode="&#xc3;" horiz-adv-x="684" d="M22 0L268 688H416L662 0H545L485 170H195L136 0H22ZM227 266H452L342 579H337L227 266ZM167 770Q167 811 171 838T193 880T247 894Q275 894 302 887T356 872Q376 866 394 861T431 855Q453 855 456 865T460 905H518Q518
864 514 837T493 795T439 781Q409 781 383 788T331 803Q310 809 291 814T255 820Q234 820 230 810T226 770H167Z" />
<glyph unicode="&#xc4;" horiz-adv-x="684" d="M22 0L268 688H416L662 0H545L485 170H195L136 0H22ZM227 266H452L342 579H337L227 266ZM192 794V885H287V794H192ZM397 794V885H492V794H397Z" />
<glyph unicode="&#xc5;" horiz-adv-x="684" d="M22 0L268 688H416L662 0H545L485 170H195L136 0H22ZM227 266H452L342 579H337L227 266ZM341 674Q293 674 266 680T226 700T211 735T207 785Q207 814 210 835T226 869T265 890T341 897Q389 897 417 890T457 870T473
835T477 785Q477 756 474 735T458 701T417 681T341 674ZM341 725Q377 725 392 730T410 748T413 785Q413 808 410 821T392 840T341 845Q306 845 291 840T273 822T270 785Q270 762 273 749T291 730T341 725Z" />
<glyph unicode="&#xc6;" horiz-adv-x="959" d="M-11 0L314 688H903V592H485L534 395H856V299H556L606 96H903V0H512L472 170H182L102 0H-11ZM225 266H450L376 579H371L225 266Z" />
<glyph unicode="&#xc7;" horiz-adv-x="573" d="M351 -8Q277 -8 227 1T146 34T98 96T75 197T69 344Q69 430 75 491T97 591T145 654T227 686T351 696Q380 696 410 694T469 689T517 680V590Q492 593 468 595T420 599T380 600Q325 600 289 596T232 578T200 537T186
462T182 344Q182 274 185 227T199 152T231 110T289 92T380 88Q413 88 452 91T521 98V6Q499 2 470 -1T410 -6T351 -8ZM232 -190V-185L305 18H376V13L335 -190H232Z" />
<glyph unicode="&#xc8;" horiz-adv-x="606" d="M92 0V688H550V592H205V395H503V299H205V96H550V0H92ZM304 767L174 903V909H284L382 772V767H304Z" />
<glyph unicode="&#xc9;" horiz-adv-x="606" d="M92 0V688H550V592H205V395H503V299H205V96H550V0H92ZM265 766V771L363 909H473V904L343 766H265Z" />
<glyph unicode="&#xca;" horiz-adv-x="606" d="M92 0V688H550V592H205V395H503V299H205V96H550V0H92ZM175 767V773L274 909H381L480 773V767H408L327 857L246 767H175Z" />
<glyph unicode="&#xcb;" horiz-adv-x="606" d="M92 0V688H550V592H205V395H503V299H205V96H550V0H92ZM178 794V885H273V794H178ZM383 794V885H478V794H383Z" />
<glyph unicode="&#xcc;" horiz-adv-x="296" d="M92 0V688H205V0H92ZM124 767L-6 903V909H104L202 772V767H124Z" />
<glyph unicode="&#xcd;" horiz-adv-x="296" d="M92 0V688H205V0H92ZM85 766V771L183 909H293V904L163 766H85Z" />
<glyph unicode="&#xce;" horiz-adv-x="296" d="M92 0V688H205V0H92ZM-5 767V773L94 909H201L300 773V767H228L147 857L66 767H-5Z" />
<glyph unicode="&#xcf;" horiz-adv-x="296" d="M92 0V688H205V0H92ZM-2 794V885H93V794H-2ZM203 794V885H298V794H203Z" />
<glyph unicode="&#xd0;" horiz-adv-x="686" d="M92 0V304H24V392H92V688H317Q404 688 459 680T547 649T593 588T612 489T616 344Q616 259 612 199T594 100T547 39T460 9T317 0H92ZM205 96H307Q363 96 399 98T457 112T488 150T500 223T503 344Q503 417 501 464T488
537T456 575T399 589T307 592H205V392H304V304H205V96Z" />
<glyph unicode="&#xd1;" horiz-adv-x="728" d="M92 0V688H209L524 212H528V688H636V0H528L204 491H200V0H92ZM199 770Q199 811 203 838T225 880T279 894Q307 894 334 887T388 872Q408 866 426 861T463 855Q485 855 488 865T492 905H550Q550 864 546 837T525 795T471
781Q441 781 415 788T363 803Q342 809 323 814T287 820Q266 820 262 810T258 770H199Z" />
<glyph unicode="&#xd2;" horiz-adv-x="712" d="M355 -8Q273 -8 220 1T136 34T91 97T73 197T69 344Q69 430 73 490T91 591T136 654T220 686T355 696Q437 696 490 687T575 654T620 591T639 491T643 344Q643 258 639 198T621 97T575 34T491 2T355 -8ZM355 88Q405
88 437 91T488 106T516 145T527 220T530 344Q530 420 528 467T516 542T489 582T438 597T355 600Q306 600 274 597T223 582T196 543T185 468T182 344Q182 268 184 221T195 146T223 106T274 91T355 88ZM333 767L203 903V909H313L411 772V767H333Z" />
<glyph unicode="&#xd3;" horiz-adv-x="712" d="M355 -8Q273 -8 220 1T136 34T91 97T73 197T69 344Q69 430 73 490T91 591T136 654T220 686T355 696Q437 696 490 687T575 654T620 591T639 491T643 344Q643 258 639 198T621 97T575 34T491 2T355 -8ZM355 88Q405
88 437 91T488 106T516 145T527 220T530 344Q530 420 528 467T516 542T489 582T438 597T355 600Q306 600 274 597T223 582T196 543T185 468T182 344Q182 268 184 221T195 146T223 106T274 91T355 88ZM294 766V771L392 909H502V904L372 766H294Z" />
<glyph unicode="&#xd4;" horiz-adv-x="712" d="M355 -8Q273 -8 220 1T136 34T91 97T73 197T69 344Q69 430 73 490T91 591T136 654T220 686T355 696Q437 696 490 687T575 654T620 591T639 491T643 344Q643 258 639 198T621 97T575 34T491 2T355 -8ZM355 88Q405
88 437 91T488 106T516 145T527 220T530 344Q530 420 528 467T516 542T489 582T438 597T355 600Q306 600 274 597T223 582T196 543T185 468T182 344Q182 268 184 221T195 146T223 106T274 91T355 88ZM204 767V773L303 909H410L509 773V767H437L356 857L275 767H204Z"
/>
<glyph unicode="&#xd5;" horiz-adv-x="712" d="M355 -8Q273 -8 220 1T136 34T91 97T73 197T69 344Q69 430 73 490T91 591T136 654T220 686T355 696Q437 696 490 687T575 654T620 591T639 491T643 344Q643 258 639 198T621 97T575 34T491 2T355 -8ZM355 88Q405
88 437 91T488 106T516 145T527 220T530 344Q530 420 528 467T516 542T489 582T438 597T355 600Q306 600 274 597T223 582T196 543T185 468T182 344Q182 268 184 221T195 146T223 106T274 91T355 88ZM181 770Q181 811 185 838T207 880T261 894Q289 894 316 887T370
872Q390 866 408 861T445 855Q467 855 470 865T474 905H532Q532 864 528 837T507 795T453 781Q423 781 397 788T345 803Q324 809 305 814T269 820Q248 820 244 810T240 770H181Z" />
<glyph unicode="&#xd6;" horiz-adv-x="712" d="M355 -8Q273 -8 220 1T136 34T91 97T73 197T69 344Q69 430 73 490T91 591T136 654T220 686T355 696Q437 696 490 687T575 654T620 591T639 491T643 344Q643 258 639 198T621 97T575 34T491 2T355 -8ZM355 88Q405
88 437 91T488 106T516 145T527 220T530 344Q530 420 528 467T516 542T489 582T438 597T355 600Q306 600 274 597T223 582T196 543T185 468T182 344Q182 268 184 221T195 146T223 106T274 91T355 88ZM206 794V885H301V794H206ZM411 794V885H506V794H411Z" />
<glyph unicode="&#xd7;" horiz-adv-x="490" d="M127 74L68 135L185 252L67 370L127 429L245 312L363 430L423 371L305 252L423 134L363 74L245 192L127 74Z" />
<glyph unicode="&#xd8;" horiz-adv-x="712" d="M69 -55L547 743H643L164 -55H69ZM355 -8Q273 -8 220 1T136 34T91 97T73 197T69 344Q69 430 73 490T91 591T136 654T220 686T355 696Q437 696 490 687T575 654T620 591T639 491T643 344Q643 258 639 198T621 97T575
34T491 2T355 -8ZM355 88Q405 88 437 91T488 106T516 145T527 220T530 344Q530 420 528 467T516 542T489 582T438 597T355 600Q306 600 274 597T223 582T196 543T185 468T182 344Q182 268 184 221T195 146T223 106T274 91T355 88Z" />
<glyph unicode="&#xd9;" horiz-adv-x="704" d="M352 -8Q281 -8 233 0T156 29T111 84T90 174T84 304V688H197V269Q197 211 201 175T219 120T265 95T352 88Q408 88 439 94T484 120T502 175T506 269V688H619V304Q619 228 614 174T593 85T549 29T471 1T352 -8ZM329
767L199 903V909H309L407 772V767H329Z" />
<glyph unicode="&#xda;" horiz-adv-x="704" d="M352 -8Q281 -8 233 0T156 29T111 84T90 174T84 304V688H197V269Q197 211 201 175T219 120T265 95T352 88Q408 88 439 94T484 120T502 175T506 269V688H619V304Q619 228 614 174T593 85T549 29T471 1T352 -8ZM290
766V771L388 909H498V904L368 766H290Z" />
<glyph unicode="&#xdb;" horiz-adv-x="704" d="M352 -8Q281 -8 233 0T156 29T111 84T90 174T84 304V688H197V269Q197 211 201 175T219 120T265 95T352 88Q408 88 439 94T484 120T502 175T506 269V688H619V304Q619 228 614 174T593 85T549 29T471 1T352 -8ZM200
767V773L299 909H406L505 773V767H433L352 857L271 767H200Z" />
<glyph unicode="&#xdc;" horiz-adv-x="704" d="M352 -8Q281 -8 233 0T156 29T111 84T90 174T84 304V688H197V269Q197 211 201 175T219 120T265 95T352 88Q408 88 439 94T484 120T502 175T506 269V688H619V304Q619 228 614 174T593 85T549 29T471 1T352 -8ZM202
794V885H297V794H202ZM407 794V885H502V794H407Z" />
<glyph unicode="&#xdd;" horiz-adv-x="615" d="M250 0V253L7 688H127L306 365H313L490 688H607L363 253V0H250ZM245 766V771L343 909H453V904L323 766H245Z" />
<glyph unicode="&#xde;" horiz-adv-x="650" d="M92 0V688H205V574H400Q465 574 505 558T566 512T595 442T603 351Q603 304 596 263T568 192T505 145T397 128H205V0H92ZM205 224H354Q401 224 429 230T469 250T486 289T490 351Q490 387 487 411T471 451T431 472T357
478H205V224Z" />
<glyph unicode="&#xdf;" horiz-adv-x="605" d="M79 0V547Q79 616 100 661T172 728T311 750Q379 750 423 739T491 705T526 650T536 574Q536 513 508 481T420 438V434Q482 423 513 381T545 240Q545 177 537 131T507 57T442 14T330 0H267V88H310Q353 88 378 92T417
110T434 156T438 242Q438 304 427 335T390 377T313 388H287V477H313Q358 477 383 484T418 510T429 561Q429 603 419 624T382 653T306 661Q264 661 238 653T198 617T185 532V0H79Z" />
<glyph unicode="&#xe0;" horiz-adv-x="566" d="M209 -8Q157 -8 122 6T68 52T50 141Q50 200 64 234T112 284T208 299Q218 299 237 299T282 298T333 297T380 295V319Q380 358 375 380T355 412T310 426T235 429Q213 429 184 428T126 424T83 419V503Q124 511 173 514T271
518Q328 518 366 511T429 489T465 450T482 393T487 316V0H389L385 66H379Q362 34 334 18T272 -3T209 -8ZM256 78Q281 78 301 81T337 93T362 117Q371 134 375 156T380 208V226H234Q201 226 184 221T160 200T154 151Q154 120 161 105T190 84T256 78ZM270 588L140
725V730H250L348 594V588H270Z" />
<glyph unicode="&#xe1;" horiz-adv-x="566" d="M209 -8Q157 -8 122 6T68 52T50 141Q50 200 64 234T112 284T208 299Q218 299 237 299T282 298T333 297T380 295V319Q380 358 375 380T355 412T310 426T235 429Q213 429 184 428T126 424T83 419V503Q124 511 173 514T271
518Q328 518 366 511T429 489T465 450T482 393T487 316V0H389L385 66H379Q362 34 334 18T272 -3T209 -8ZM256 78Q281 78 301 81T337 93T362 117Q371 134 375 156T380 208V226H234Q201 226 184 221T160 200T154 151Q154 120 161 105T190 84T256 78ZM197 588V593L295
731H405V726L275 588H197Z" />
<glyph unicode="&#xe2;" horiz-adv-x="566" d="M209 -8Q157 -8 122 6T68 52T50 141Q50 200 64 234T112 284T208 299Q218 299 237 299T282 298T333 297T380 295V319Q380 358 375 380T355 412T310 426T235 429Q213 429 184 428T126 424T83 419V503Q124 511 173 514T271
518Q328 518 366 511T429 489T465 450T482 393T487 316V0H389L385 66H379Q362 34 334 18T272 -3T209 -8ZM256 78Q281 78 301 81T337 93T362 117Q371 134 375 156T380 208V226H234Q201 226 184 221T160 200T154 151Q154 120 161 105T190 84T256 78ZM132 588V595L231
731H338L437 595V588H365L284 679L203 588H132Z" />
<glyph unicode="&#xe3;" horiz-adv-x="566" d="M209 -8Q157 -8 122 6T68 52T50 141Q50 200 64 234T112 284T208 299Q218 299 237 299T282 298T333 297T380 295V319Q380 358 375 380T355 412T310 426T235 429Q213 429 184 428T126 424T83 419V503Q124 511 173 514T271
518Q328 518 366 511T429 489T465 450T482 393T487 316V0H389L385 66H379Q362 34 334 18T272 -3T209 -8ZM256 78Q281 78 301 81T337 93T362 117Q371 134 375 156T380 208V226H234Q201 226 184 221T160 200T154 151Q154 120 161 105T190 84T256 78ZM107 592Q107
633 111 660T133 702T187 716Q215 716 242 709T296 694Q316 688 334 683T371 677Q393 677 396 687T400 727H458Q458 686 454 659T433 617T379 603Q349 603 323 610T271 625Q250 631 231 636T195 642Q174 642 170 632T166 592H107Z" />
<glyph unicode="&#xe4;" horiz-adv-x="566" d="M209 -8Q157 -8 122 6T68 52T50 141Q50 200 64 234T112 284T208 299Q218 299 237 299T282 298T333 297T380 295V319Q380 358 375 380T355 412T310 426T235 429Q213 429 184 428T126 424T83 419V503Q124 511 173 514T271
518Q328 518 366 511T429 489T465 450T482 393T487 316V0H389L385 66H379Q362 34 334 18T272 -3T209 -8ZM256 78Q281 78 301 81T337 93T362 117Q371 134 375 156T380 208V226H234Q201 226 184 221T160 200T154 151Q154 120 161 105T190 84T256 78ZM134 616V707H229V616H134ZM339
616V707H434V616H339Z" />
<glyph unicode="&#xe5;" horiz-adv-x="566" d="M209 -8Q157 -8 122 6T68 52T50 141Q50 200 64 234T112 284T208 299Q218 299 237 299T282 298T333 297T380 295V319Q380 358 375 380T355 412T310 426T235 429Q213 429 184 428T126 424T83 419V503Q124 511 173 514T271
518Q328 518 366 511T429 489T465 450T482 393T487 316V0H389L385 66H379Q362 34 334 18T272 -3T209 -8ZM256 78Q281 78 301 81T337 93T362 117Q371 134 375 156T380 208V226H234Q201 226 184 221T160 200T154 151Q154 120 161 105T190 84T256 78ZM283 574Q235
574 208 580T168 600T153 635T149 685Q149 714 152 735T168 769T207 790T283 797Q331 797 359 790T399 770T415 735T419 685Q419 656 416 635T400 601T359 581T283 574ZM283 625Q319 625 334 630T352 648T355 685Q355 708 352 721T334 740T283 745Q248 745 233
740T215 722T212 685Q212 662 215 649T233 630T283 625Z" />
<glyph unicode="&#xe6;" horiz-adv-x="882" d="M226 -8Q182 -8 149 -1T94 24T61 70T50 141Q50 200 64 234T112 283T208 298Q225 298 254 298T318 297T380 295V319Q380 358 375 380T355 412T310 426T235 429Q213 429 182 428T122 424T83 419V503Q115 508 164 513T271
518Q337 518 377 507T440 469Q465 495 506 506T610 518Q671 518 710 509T771 479T804 428T818 353T821 255V222H488Q488 177 492 150T510 107T556 86T642 80Q665 80 693 81T749 85T801 90V7Q779 3 748 0T683 -6T618 -8Q563 -8 524 -1T460 20T420 60Q397 29 364
15T294 -4T226 -8ZM256 78Q283 78 305 81T342 95T367 126Q374 142 377 161T380 208V223H234Q201 223 184 219T160 199T154 151Q154 120 161 105T190 84T256 78ZM720 247Q720 307 717 343T703 398T670 423T608 430Q568 430 545 425T509 405T493 363T488 293H767L720
247Z" />
<glyph unicode="&#xe7;" horiz-adv-x="461" d="M270 -8Q211 -8 173 2T111 33T77 85T63 159T59 256Q59 309 63 351T79 424T115 476T175 507T268 518Q304 518 343 514T409 504V420Q387 424 355 426T295 429Q252 429 227 422T188 396T171 343T166 255Q166 200 170
165T188 112T228 88T297 81Q322 81 353 83T414 90V6Q387 0 347 -4T270 -8ZM170 -190V-185L243 18H314V13L273 -190H170Z" />
<glyph unicode="&#xe8;" horiz-adv-x="558" d="M296 -8Q231 -8 188 0T119 28T80 78T63 152T59 254Q59 323 66 373T95 455T163 503T288 518Q349 518 388 509T449 479T482 428T496 353T499 254V220H166Q166 175 170 148T188 106T234 86T320 80Q343 80 370 81T427
85T479 90V7Q457 3 426 0T361 -6T296 -8ZM397 277V296Q397 341 392 367T374 407T340 425T286 430Q246 430 223 425T187 404T171 363T166 293H415L397 277ZM271 588L141 725V730H251L349 594V588H271Z" />
<glyph unicode="&#xe9;" horiz-adv-x="558" d="M296 -8Q231 -8 188 0T119 28T80 78T63 152T59 254Q59 323 66 373T95 455T163 503T288 518Q349 518 388 509T449 479T482 428T496 353T499 254V220H166Q166 175 170 148T188 106T234 86T320 80Q343 80 370 81T427
85T479 90V7Q457 3 426 0T361 -6T296 -8ZM397 277V296Q397 341 392 367T374 407T340 425T286 430Q246 430 223 425T187 404T171 363T166 293H415L397 277ZM198 588V593L296 731H406V726L276 588H198Z" />
<glyph unicode="&#xea;" horiz-adv-x="558" d="M296 -8Q231 -8 188 0T119 28T80 78T63 152T59 254Q59 323 66 373T95 455T163 503T288 518Q349 518 388 509T449 479T482 428T496 353T499 254V220H166Q166 175 170 148T188 106T234 86T320 80Q343 80 370 81T427
85T479 90V7Q457 3 426 0T361 -6T296 -8ZM397 277V296Q397 341 392 367T374 407T340 425T286 430Q246 430 223 425T187 404T171 363T166 293H415L397 277ZM133 588V595L232 731H339L438 595V588H366L285 679L204 588H133Z" />
<glyph unicode="&#xeb;" horiz-adv-x="558" d="M296 -8Q231 -8 188 0T119 28T80 78T63 152T59 254Q59 323 66 373T95 455T163 503T288 518Q349 518 388 509T449 479T482 428T496 353T499 254V220H166Q166 175 170 148T188 106T234 86T320 80Q343 80 370 81T427
85T479 90V7Q457 3 426 0T361 -6T296 -8ZM397 277V296Q397 341 392 367T374 407T340 425T286 430Q246 430 223 425T187 404T171 363T166 293H415L397 277ZM135 616V707H230V616H135ZM340 616V707H435V616H340Z" />
<glyph unicode="&#xec;" horiz-adv-x="264" d="M79 0V510H185V0H79ZM374 588L244 725V730H354L452 594V588H374Z" />
<glyph unicode="&#xed;" horiz-adv-x="264" d="M79 0V510H185V0H79ZM45 588V593L143 731H253V726L123 588H45Z" />
<glyph unicode="&#xee;" horiz-adv-x="264" d="M79 0V510H185V0H79ZM236 588V595L335 731H442L541 595V588H469L388 679L307 588H236Z" />
<glyph unicode="&#xef;" horiz-adv-x="264" d="M79 0V510H185V0H79ZM238 616V707H333V616H238ZM443 616V707H538V616H443Z" />
<glyph unicode="&#xf0;" horiz-adv-x="578" d="M287 -8Q223 -8 181 0T115 26T78 75T63 150T59 254Q59 323 64 373T89 455T149 502T259 517Q299 517 327 512T376 496L380 499Q369 530 355 557T326 608L210 589V658L282 669Q263 691 245 708T210 739V743H326Q339
731 354 717T384 685L496 703V635L429 624Q451 588 469 545T499 448Q504 421 508 392T514 332T516 268Q516 203 513 157T498 78T462 27T395 1T287 -8ZM287 80Q334 80 358 85T394 109T407 161T410 254Q410 305 408 339T394 393T359 421T287 429Q242 429 217 423T182
399T169 347T166 254Q166 196 168 162T181 109T217 86T287 80Z" />
<glyph unicode="&#xf1;" horiz-adv-x="596" d="M79 0V510H177L180 442H188Q200 467 220 483T272 509T350 518Q404 518 437 506T487 468T510 406T517 319V0H410V277Q410 327 407 356T392 400T360 419T302 423Q262 423 239 413T204 383T189 333T185 263V0H79ZM121
592Q121 633 125 660T147 702T201 716Q229 716 256 709T310 694Q330 688 348 683T385 677Q407 677 410 687T414 727H472Q472 686 468 659T447 617T393 603Q363 603 337 610T285 625Q264 631 245 636T209 642Q188 642 184 632T180 592H121Z" />
<glyph unicode="&#xf2;" horiz-adv-x="575" d="M287 -8Q223 -8 181 0T114 25T78 73T63 148T59 256Q59 318 62 363T77 438T113 485T180 510T287 518Q352 518 394 511T461 486T497 438T512 363T516 256Q516 193 513 148T498 73T462 26T395 0T287 -8ZM287 81Q333
81 358 87T393 111T406 164T409 256Q409 313 407 347T394 400T358 423T287 429Q242 429 217 424T182 400T169 348T166 256Q166 199 168 164T181 111T217 87T287 81ZM273 588L143 725V730H253L351 594V588H273Z" />
<glyph unicode="&#xf3;" horiz-adv-x="575" d="M287 -8Q223 -8 181 0T114 25T78 73T63 148T59 256Q59 318 62 363T77 438T113 485T180 510T287 518Q352 518 394 511T461 486T497 438T512 363T516 256Q516 193 513 148T498 73T462 26T395 0T287 -8ZM287 81Q333
81 358 87T393 111T406 164T409 256Q409 313 407 347T394 400T358 423T287 429Q242 429 217 424T182 400T169 348T166 256Q166 199 168 164T181 111T217 87T287 81ZM200 588V593L298 731H408V726L278 588H200Z" />
<glyph unicode="&#xf4;" horiz-adv-x="575" d="M287 -8Q223 -8 181 0T114 25T78 73T63 148T59 256Q59 318 62 363T77 438T113 485T180 510T287 518Q352 518 394 511T461 486T497 438T512 363T516 256Q516 193 513 148T498 73T462 26T395 0T287 -8ZM287 81Q333
81 358 87T393 111T406 164T409 256Q409 313 407 347T394 400T358 423T287 429Q242 429 217 424T182 400T169 348T166 256Q166 199 168 164T181 111T217 87T287 81ZM135 588V595L234 731H341L440 595V588H368L287 679L206 588H135Z" />
<glyph unicode="&#xf5;" horiz-adv-x="575" d="M287 -8Q223 -8 181 0T114 25T78 73T63 148T59 256Q59 318 62 363T77 438T113 485T180 510T287 518Q352 518 394 511T461 486T497 438T512 363T516 256Q516 193 513 148T498 73T462 26T395 0T287 -8ZM287 81Q333
81 358 87T393 111T406 164T409 256Q409 313 407 347T394 400T358 423T287 429Q242 429 217 424T182 400T169 348T166 256Q166 199 168 164T181 111T217 87T287 81ZM110 592Q110 633 114 660T136 702T190 716Q218 716 245 709T299 694Q319 688 337 683T374 677Q396
677 399 687T403 727H461Q461 686 457 659T436 617T382 603Q352 603 326 610T274 625Q253 631 234 636T198 642Q177 642 173 632T169 592H110Z" />
<glyph unicode="&#xf6;" horiz-adv-x="575" d="M287 -8Q223 -8 181 0T114 25T78 73T63 148T59 256Q59 318 62 363T77 438T113 485T180 510T287 518Q352 518 394 511T461 486T497 438T512 363T516 256Q516 193 513 148T498 73T462 26T395 0T287 -8ZM287 81Q333
81 358 87T393 111T406 164T409 256Q409 313 407 347T394 400T358 423T287 429Q242 429 217 424T182 400T169 348T166 256Q166 199 168 164T181 111T217 87T287 81ZM137 616V707H232V616H137ZM342 616V707H437V616H342Z" />
<glyph unicode="&#xf7;" horiz-adv-x="540" d="M70 210V295H470V210H70ZM226 23V110H313V23H226ZM226 395V482H313V395H226Z" />
<glyph unicode="&#xf8;" horiz-adv-x="575" d="M59 -55L433 565H516L141 -55H59ZM287 -8Q223 -8 181 0T114 25T78 73T63 148T59 256Q59 318 62 363T77 438T113 485T180 510T287 518Q352 518 394 511T461 486T497 438T512 363T516 256Q516 193 513 148T498 73T462
26T395 0T287 -8ZM287 81Q333 81 358 87T393 111T406 164T409 256Q409 313 407 347T394 400T358 423T287 429Q242 429 217 424T182 400T169 348T166 256Q166 199 168 164T181 111T217 87T287 81Z" />
<glyph unicode="&#xf9;" horiz-adv-x="596" d="M246 -8Q193 -8 160 4T109 42T85 104T79 191V510H185V233Q185 183 188 154T203 110T235 91T293 87Q333 87 357 97T392 127T407 177T410 247V510H517V0H419L415 68H408Q397 44 377 27T324 1T246 -8ZM283 588L153 725V730H263L361
594V588H283Z" />
<glyph unicode="&#xfa;" horiz-adv-x="596" d="M246 -8Q193 -8 160 4T109 42T85 104T79 191V510H185V233Q185 183 188 154T203 110T235 91T293 87Q333 87 357 97T392 127T407 177T410 247V510H517V0H419L415 68H408Q397 44 377 27T324 1T246 -8ZM210 588V593L308
731H418V726L288 588H210Z" />
<glyph unicode="&#xfb;" horiz-adv-x="596" d="M246 -8Q193 -8 160 4T109 42T85 104T79 191V510H185V233Q185 183 188 154T203 110T235 91T293 87Q333 87 357 97T392 127T407 177T410 247V510H517V0H419L415 68H408Q397 44 377 27T324 1T246 -8ZM145 588V595L244
731H351L450 595V588H378L297 679L216 588H145Z" />
<glyph unicode="&#xfc;" horiz-adv-x="596" d="M246 -8Q193 -8 160 4T109 42T85 104T79 191V510H185V233Q185 183 188 154T203 110T235 91T293 87Q333 87 357 97T392 127T407 177T410 247V510H517V0H419L415 68H408Q397 44 377 27T324 1T246 -8ZM147 616V707H242V616H147ZM352
616V707H447V616H352Z" />
<glyph unicode="&#xfd;" horiz-adv-x="596" d="M281 -206Q252 -206 221 -205T161 -201T110 -196V-113Q146 -114 172 -115T220 -116T257 -117Q311 -117 342 -110T388 -86T406 -40T410 35V66H404Q394 44 375 29T324 5T246 -4Q193 -4 160 8T109 45T85 107T79 193V510H185V235Q185
185 188 156T203 112T235 94T293 89Q333 89 357 99T392 129T407 179T410 249V510H517V60Q517 -11 510 -61T479 -144T408 -191T281 -206ZM210 588V593L308 731H418V726L288 588H210Z" />
<glyph unicode="&#xfe;" horiz-adv-x="587" d="M79 -189V743H185V446H192Q207 476 230 491T283 512T346 518Q397 518 431 506T487 464T518 383T528 256Q528 179 519 128T489 48T434 5T349 -8Q295 -8 255 6T192 60H185V-189H79ZM302 87Q342 87 365 92T401 114T417
164T421 255Q421 312 417 345T401 396T366 418T302 424Q262 424 238 414T202 380Q191 359 188 328T185 255Q185 217 187 188T198 140Q209 112 233 100T302 87Z" />
<glyph unicode="&#xff;" horiz-adv-x="596" d="M281 -206Q252 -206 221 -205T161 -201T110 -196V-113Q146 -114 172 -115T220 -116T257 -117Q311 -117 342 -110T388 -86T406 -40T410 35V66H404Q394 44 375 29T324 5T246 -4Q193 -4 160 8T109 45T85 107T79 193V510H185V235Q185
185 188 156T203 112T235 94T293 89Q333 89 357 99T392 129T407 179T410 249V510H517V60Q517 -11 510 -61T479 -144T408 -191T281 -206ZM147 616V707H242V616H147ZM352 616V707H447V616H352Z" />
<glyph unicode="&#x2013;" horiz-adv-x="473" d="M52 261V346H421V261H52Z" />
<glyph unicode="&#x2014;" horiz-adv-x="874" d="M52 261V346H822V261H52Z" />
<glyph unicode="&#x2018;" horiz-adv-x="243" d="M64 453V535Q64 582 68 611T86 658T125 681T195 688V642Q170 642 156 638T137 620T132 580V563H179V453H64Z" />
<glyph unicode="&#x2019;" horiz-adv-x="243" d="M48 453V499Q74 499 87 503T106 521T111 561V578H64V688H179V605Q179 558 175 529T157 483T117 460T48 453Z" />
<glyph unicode="&#x201a;" horiz-adv-x="243" d="M48 -125V-79Q74 -79 87 -75T106 -57T111 -17V0H64V110H179V28Q179 -19 175 -49T157 -95T117 -118T48 -125Z" />
<glyph unicode="&#x201c;" horiz-adv-x="425" d="M246 453V535Q246 582 250 611T268 658T308 681T377 688V642Q352 642 338 638T319 619T314 580V563H361V453H246ZM64 453V535Q64 582 68 611T86 658T125 681T195 688V642Q170 642 156 638T137 619T132 580V563H179V453H64Z"
/>
<glyph unicode="&#x201d;" horiz-adv-x="425" d="M230 453V499Q256 499 269 503T288 521T293 561V578H246V688H361V605Q361 558 357 529T339 483T300 460T230 453ZM48 453V499Q74 499 87 503T106 521T111 561V578H64V688H179V605Q179 558 175 529T157 483T117
460T48 453Z" />
<glyph unicode="&#x201e;" horiz-adv-x="425" d="M230 -125V-79Q256 -79 269 -75T288 -57T293 -17V0H246V110H361V28Q361 -19 357 -49T339 -95T300 -118T230 -125ZM48 -125V-79Q74 -79 87 -75T106 -57T111 -17V0H64V110H179V28Q179 -19 175 -49T157 -95T117 -118T48
-125Z" />
<glyph unicode="&#x2022;" horiz-adv-x="377" d="M187 228Q147 228 124 232T91 248T78 283T75 342Q75 379 77 402T90 437T124 454T187 459Q228 459 251 455T286 438T299 402T302 342Q302 306 300 284T286 249T252 232T187 228Z" />
<glyph unicode="&#x2039;" horiz-adv-x="307" d="M170 99L38 304L170 510H243L132 304L243 99H170Z" />
<glyph unicode="&#x203a;" horiz-adv-x="307" d="M63 99L174 304L63 510H137L269 304L137 99H63Z" />
</font>
</defs>
</svg>
